This file was generated by Ched 2.7.0.0.
#TITLE ""
#ARTIST ""
#DESIGNER ""
#DIFFICULTY 0
#PLAYLEVEL
#SONGID ""
#WAVE ""
#WAVEOFFSET 0
#JACKET ""
#REQUEST "ticks_per_beat 480"
#00002: 4
#BPM01: 144
#00008: 01
#TIL00: ""
#VOLUME: ""
#HISPEED 00
#MEASUREHS 00
#0041b:0000130000130000
#00418:13000000000000130000000000000000
#00412:0013000000001300
#00415:0000001313000013
#0501b:13000013
#05018:00131300
#05015:0013000000130000
#05012:0000001300000000
#05618:13
#05612:0013000000002400
#0561a:00000024
#05615:00000000003333330000000000000000
#06812:0000000000000013
#0681b:0013
#06815:0000000000130000
#06818:00000013
#04915:0000000000000013
#00012:0014
#00016:00000014
#00118:0014001400140000
#00112:2400140014000013
#00218:00130000
#00215:0000001300000013
#0021b:00001313
#00212:0000000000130000
#0031b:00130013
#00315:0000001300000013
#00318:0013
#00312:0000000000130000
#00514:0014001400140000
#0051a:24141400
#0051b:0000000000000013
#00615:00130000
#00618:0000001300000013
#00612:00001313
#0061b:0000000000130000
#00712:00130013
#00718:0000001300000013
#00715:0013
#0071b:0000000000130000
#00814:1414
#00818:00140024
#00815:00000000000000000000000000000033
#01015:13001313
#01018:00000000000000000000130000000033
#0101b:00000033333300000000000000000000
#01612:0000000000130000
#0161b:00000013
#01615:0000000000000013
#01712:0014001400140000
#01718:24141400
#0171b:0000000000000013
#01812:0000130000000013
#01815:0013
#0181b:0000000000130000
#01818:0000001300001300
#01915:00130000000033331300000013000000
#01912:00003333130000000000133300001333
#02018:0000001300000000
#02012:0013
#02015:0000130000130000
#0201b:0013000000000000
#0211a:0014001400140000
#02114:24141400
#02112:0000000000000013
#02218:00130000
#0221b:00001313
#02215:0000000000130013
#02212:0000001300000000
#02418:00130000
#02415:0000000013000013
#02412:00000013
#0321a:00140000
#03212:00000028
#0401a:00140000
#04012:14000026
#0401b:00000000000000000000000000000033
#04815:0000000000130000
#04818:00000013
#05415:0013130000001300
#0541b:1300000000130000
#05418:0000001300000000
#05412:0013
#05518:0000000000000013
#0591b:13130000
#05915:00130000
#05912:00001313
#05918:00000013
#0601b:13130000
#06015:00130000
#06012:00001313
#06018:00000013
#06312:13130000
#06318:00130000
#0631b:00001313
#06315:00000013
#06412:13130000
#06418:00130000
#0641b:00002323
#06415:0000000000230000
#06518:0014001400140000
#06512:1400140014000013
#0651f:11
#0661b:00130013
#06612:0000001300000013
#06618:0013
#06615:0000000000130000
#06718:0000130000130000
#06715:0000001300001300
#0671b:0013
#06712:0000000000000013
#06914:0014001400140000
#0691a:14141400
#0691b:0000000000000013
#07015:0000131313000000
#07018:00000000001300130000000000000000
#0701b:0000000000130013
#07012:00000013
#07115:0000130000130000
#07118:0000001300001300
#07112:0013
#0711b:0000000000000013
#07218:00140026
#07213:0015
#07215:13
#0751b:00130000
#07512:0013001300000000
#08012:16000026
#08018:00160000
#08119:0013000000000000
#08114:0000001300000000
#0811a:0000000000130000
#08113:0000000000000013
#08118:2323
#08115:00230023
#0821b:0013000000130000
#08212:0000001300000000
#08215:0000230000000013
#08218:2323
#0841b:0000130000130000
#08415:0000001313000000
#08418:13000000000000130000000000000000
#08412:0013000000001300
#08514:0013000000000000
#08519:0000001300000000
#08513:0000000000130000
#0851a:0000000000000013
#08515:2323
#08518:00230023
#08510:41
#08612:0013000000130000
#0861b:0000001300000000
#08618:0000230000000013
#08615:2323
#08315:0000000000000013
#0831b:00000000003333330000000000000000
#08318:00000000000000000033333300000000
#02318:00000000133300330000000013330033
#0231b:00000000000000001333003300000000
#03412:1400001313000013
#0341b:0013130000131300
#03415:00000013000000000000001300000000
#03418:00000000000000130000000000000000
#03714:00001434003414340000340000000000
#03712:24242400
#0521b:1313
#05212:00000013
#05218:0000130000130000
#05215:0013001300000000
#05112:0000000000000013
#0531b:0000000000000013
#07618:1414
#07614:00140000
#0761a:00000024
#07612:00000024
#08715:00000000130013001300000000331333
#08718:00000000001300130000000000000000
#08712:00000000000000000000333313000000
#01115:0000000000130000
#01112:0000000000000013
#01118:00000000000000330000000013000000
#0111b:00000033000000000000000000000000
#0121b:13000000000000000000000000000033
#01218:0000000000130000
#01215:00000013
#01212:00000033330033330000000000000000
#07314:00001434003414340000140000000000
#07312:24242400
#0731f:21
#07718:00001434003414340000140000000000
#0771a:24242400
#00918:0000000000000013
#00912:00000033000000000000003300000000
#00915:00000000000000330000000000000000
#00910:41
#01312:0000000000000013
#01318:00000033000000000000003300000000
#0131b:00000000000000330000000000000000
#01418:13
#0141b:00001313
#01415:0000000000130000
#01412:00000033333300000000000000000033
#01518:0000000000130000
#01515:00000033000000000000000013001300
#01512:00000000000000330000000000000000
#03318:00001434003414340000340000000000
#0331a:24242400
#03310:41
#0741b:0000001313000013
#07412:0013130000131300
#07418:00000013000000000000001300000000
#07415:00000000000000130000000000000000
#0741a:14
#07410:41
#07812:1400001313000013
#0781b:0013130000131300
#07815:00000013000000000000001300000000
#07818:00000000000000130000000000000013
#07918:00000000000000000000001300000000
#0791b:0013
#07912:00001333333300000000000000000000
#03618:1414
#03614:00140000
#0361a:00000024
#03612:00000024
#03515:00000000000000000000001300000000
#03512:0013
#0351b:0013000000000000
#03518:00000033333300000000000000000000
#0381b:0000001313000013
#0381a:14
#03812:0013130000131300
#03818:00000013000000000000001300000000
#03815:00000000000000130000000000000013
#0391b:13000000000000000000001300000000
#03918:0013
#03915:0013000000000000
#03912:00000033333300000000000000000000
#04118:00000000000000330000000000001300
#04115:00000033000000000000000000000000
#04112:00000000000000000000003300000000
#04110:41
#04415:13000000000000000000130000000033
#0441b:00001300000033330000000000000000
#0441b:0033000000000000
#04418:00000033331300000000000013000000
#04218:00001313
#04215:1333000000130000
#04212:00000033333300000000000000000033
#0431b:0000000000130000
#04318:00000033000000000000000013000000
#04312:0000000000000013
#04315:00000000000000330000000000000000
#04515:0000000000000013
#0451b:00000033000000000000000000000000
#04512:00000000000000330000000000000000
#04518:00000000000000000000003300000000
#0461b:1333000000000000
#04615:00001313
#04618:00000033333300000000130000000033
#04712:00000033000000000000130000000000
#04715:00000013
#04718:0000000000000013
#0471b:00000000000000330000000000000000
#02512:23
#0251a:000000003434003434003434
#02510:41
#02617:24
#02612:000000003434003434003434
#03018:24
#05715:2323
#05718:00230023
#05815:2323
#05818:00230000
#0881a:00240024
#08812:2424
#08912:2626
#08918:00260026
#02912:24
#02715:24
#0271a:000000003434003434003434
#03114:24
#06118:2323
#06115:00230023
#06218:2323
#06215:00230000
#02814:000000000000003434000000
#02812:003434000000000000000000
#02552:13
#03252:14000018
#0325a:00140000
#02657:14
#0505b:00000013
#04052:34000016
#0405a:00440000
#00052:0064
#00056:00000024
#00152:1400140014000063
#00255:0000000000000053
#0055a:14141400
#0055b:0000000000000053
#00658:0000000000000063
#00854:1414
#00858:00140014
#01758:14141400
#0175b:0000000000000053
#01852:0000000000000063
#01955:00230000000000005300000053000000
#01952:0000630000230023
#02154:14141400
#02152:0000000000000063
#02255:0000000000000053
#02458:00130000
#02455:0000000013000023
#02452:00000053
#0245b:13
#03058:14
#0315a:0014
#03154:14
#03652:00000014
#0365a:00000014
#03658:1414
#03654:00140000
#05455:00000013
#05652:00000014
#0565a:00000014
#05755:0053
#05758:00000063
#05855:5353
#05858:00630000
#05852:00000013
#06552:1400140014000063
#06652:0000000000000053
#0695a:14141400
#0695b:0000000000000053
#0705b:0000000000000063
#07258:00140016
#07253:0015
#07255:13
#08052:36000016
#08058:00460000
#0765a:00000014
#07652:00000014
#07658:1414
#07654:00140000
#08159:0023000000000000
#08154:0000002300000000
#0815a:0000000000230000
#08153:0000000000000023
#08158:6363
#08155:00530053
#0825b:0023000000230000
#08252:0000002300000000
#08258:63006313
#08255:0000530000000063
#08554:0023000000000000
#08559:0000002300000000
#08553:0000000000230000
#0855a:0000000000000023
#08555:5353
#08558:00630063
#08652:0023000000230000
#0865b:0000002300000000
#08655:53005313
#08658:0000630000000053
#08958:00460056
#08952:3636
#02358:00530053
#0235b:0053
#02952:14
#02755:14
#03754:0024002400001400
#03752:64646400
#04858:00000013
#05252:00000013
#08755:0000000053000023
#08752:00000053
#07354:0024002400240000
#07352:64646414
#07758:0024002400240000
#0775a:54545414
#08852:3434
#0885a:00440000
#03358:0024002400001400
#0335a:54545400
#0745b:0000000000000013
#07958:00000000000000000000006300000000
#0795b:0053
#07952:0063000000000000
#03452:0000000000000013
#03555:00000000000000000000005300000000
#03552:0063
#0355b:0053000000000000
#0395b:00000000000000000000005300000000
#03958:0063
#03955:0053000000000000
#04258:00000013
#04255:53
#0445b:0063000000000000
#04458:00000000002300000000000013000000
#0465b:53
#04655:00000013
#06158:0063
#06155:00000053
#06258:6363
#06255:00530000
#0625b:00000013
#000320:0014
#000360:00000054
#001320:24
#001320:0000000000000013
#002350:0023000000000000
#002350:0000000000000013
#003320:0023000000000000
#0053b0:0000000000000013
#006380:0023000000000000
#006380:0000000000000013
#0073b0:0023000000000000
#008320:0000000000000013
#008350:00000000000000000000000000000033
#009350:33003300000000333300330000000000
#009320:00000033330033000000003323000000
#0103b0:00001333333300000000000000000000
#010380:0000002300000000
#0103b0:0000000000000013
#010380:00000000000000000000000000000033
#011380:33003300000000332300000000000000
#0113b0:00000033330033000000000000000000
#012320:00001333330033332300000000000000
#012350:00000000003300000000000000000000
#012380:0000000000000013
#0123b0:00000000000000000000000000000033
#0133b0:33003300000000333300330000000000
#013380:00000033330033000000003323000000
#014320:00001333333300000000000000000000
#014350:0000002300000000
#014350:0000000000000013
#014320:00000000000000000000000000000033
#015320:33003300000000332300000000000000
#015350:00000033330033000000000000000000
#0163a0:1424
#016390:00340000000000340000000000000000
#016380:0034003400000000
#016370:00000034003400000000000000000000
#016360:00340000
#0173b0:0000000000000013
#018380:0023000000000000
#018320:0000000000000013
#019350:00530000000033333300000033000000
#019320:00003333330000000000333300003333
#020350:23
#020380:00000013
#0203b0:0000000000000023
#021320:0000000000000013
#022350:0023000000000000
#022350:0000000000000013
#023320:0023000000000000
#023380:00000000133300330000000053330033
#0233b0:00000000000000003333003300000000
#0243b0:23
#024320:00000013
#024350:0000000000000053
#025320:23
#0253a0:000000143434003434343434
#025370:0034
#026370:24
#026320:000000143434003434343434
#026350:0034
#027350:24
#0273a0:000000143434003434343434
#027370:0034
#028370:24
#028321:143434000000000000343434
#028351:000000343434340000000000
#028341:000000000000003434000000
#029321:24
#0293a1:000000143434240000000000
#029340:000000000000143434240000
#029381:000000000000000000143434
#030381:24
#030321:000000143434240000000000
#030380:000000000000143434240000
#030341:000000000000000000143434
#031341:24
#0313a1:000000143434240000000000
#031321:000000000000000000143434
#032321:24
#032341:0014
#032321:00000028
#0333a1:14543400
#033381:00003434003454340000340024000000
#0353b1:0013000000000000
#035381:00000033333323000000000000000000
#035321:0000000013000023
#035351:00000000000000000000003300000000
#037321:14543400
#037341:00003434003454340000340024000000
#039351:0013000000000000
#039321:00000033333323000000000000000000
#039381:0000000013000023
#0393b1:00000000000000000000003300000000
#040321:00001626
#040381:0000000000000013
#0403b1:00000000000000000000000000000033
#0413b1:23
#041321:0013000000000000
#041351:00000033230000000000000000000000
#0413b1:0000001300000000
#041381:00000000000000332300000000000000
#041351:0000000000130000
#041321:00000000000000000000003323000000
#042351:1333000000000000
#042321:00000033333323000000000000000000
#042351:0000000000000013
#042321:00000000000000000000000000000033
#043321:23
#0433b1:0013000000000000
#043381:00000033230000000000000000000000
#043321:0000001300000000
#043351:00000000000000332300000000000000
#0443b1:00001300000033332300000000000000
#044381:00000033333300000000000000000000
#044321:0000000000000013
#044351:00000000000000000000000000000033
#045351:23
#045381:0013000000000000
#0453b1:00000033230000000000000000000000
#045351:0000001300000000
#045321:00000000000000332300000000000000
#0453b1:0000000000130000
#045381:00000000000000000000003323000000
#0463b1:1333000000000000
#046381:00000033333323000000000000000000
#0463b1:0000000000000013
#046381:00000000000000000000000000000033
#047381:23
#047351:0013000000000000
#047321:00000033230000000000000000000000
#047381:0000001300000000
#0473b1:00000000000000332300000000000000
#0483b1:1323
#0483a1:00330000000000330000000000000000
#048391:0033003300000000
#048381:00000033003300000000000000000000
#048371:00330000
#048321:00000000000000000000000000001333
#049321:23
#049351:00001333230000000000000000000000
#049381:00000000000013332300000000000000
#0493b1:00000000000000000000133323000000
#050321:00000000000000000000000000001333
#051321:23
#051351:00001333230000000000000000000000
#051381:00000000000013332300000000000000
#0513b1:00000000000000000000133323000000
#0523b1:00000000000000000000000000001333
#0533b1:23
#053381:00001333230000000000000000000000
#053351:00000000000013332300000000000000
#053321:00000000000000000000133323000000
#0543b1:00000000000000000000000000001333
#0553b1:23
#055381:00001333230000000000000000000000
#055351:00000000000013332300000000000000
#055321:00000000000000000000133323000000
#056321:00130000
#056351:00000000003333332300000000000000
#057351:13230000
#057380:00132300
#057351:0013
#057341:00000023
#057380:00000013
#058390:23
#058351:13
#058331:00230000
#058380:00130000
#0583a0:0023
#058351:0013
#058321:00000023
#061381:13230000
#061350:00132300
#061381:0013
#061391:00000023
#061350:00000013
#062340:23
#062381:13
#0623a1:00230000
#062350:00130000
#062330:0023
#062381:0013
#0623b1:00000023
#065321:0000000000000013
#066351:0023000000000000
#066321:0000000000000013
#067351:0023000000000000
#0683b1:13
#068381:0023000000000000
#068321:00130000
#068351:0000002300000000
#0693b1:0000000000000013
#070381:0023000000000000
#0703b1:0000000000000013
#071381:0023000000000000
#073321:14543424
#073341:00003434003454340000340000000000
#075321:0000000013000023
#075351:00000000000000000000003300000000
#0773a1:14543424
#077381:00003434003454340000340000000000
#079321:13003333333300000000000000000000
#079351:0000002300000000
#0793b1:0000000013000023
#079381:00000000000000000000003300000000
#080321:00001626
#081381:13230000
#081391:0053000000000000
#081350:00132300
#081340:0000005300000000
#081381:00001323
#0813a1:0000000000530000
#081350:00000013
#081330:0000000000000053
#082350:23
#082381:13230000
#0823b1:0053000000000000
#082350:00132300
#082320:0000005300000000
#082381:00001323
#0823b1:0000000000530000
#082351:0000000000000013
#083321:0023000000000000
#0833b1:00000000133333330000000023000000
#083381:00000000000000003333333300000000
#085351:13230000
#085341:0053000000000000
#085380:00132300
#085390:0000005300000000
#085351:00001323
#085331:0000000000530000
#085380:00000013
#0853a0:0000000000000053
#086380:23
#086351:13230000
#086321:0053000000000000
#086380:00132300
#0863b0:0000005300000000
#086351:00001323
#086321:0000000000530000
#086381:0000000000000013
#0873b1:0023000000000000
#087351:00000000000000001300000000335333
#087321:00000000000000000000333353000000
#088321:24
#089381:00000016
#0923b1:23
