This file was generated by Ched 2.7.0.0.
#TITLE ""
#ARTIST ""
#DESIGNER ""
#DIFFICULTY 0
#PLAYLEVEL
#SONGID ""
#WAVE ""
#WAVEOFFSET 0
#JACKET ""
#REQUEST "ticks_per_beat 480"
#00002: 4
#BPM01: 144
#00008: 01
#TIL00: ""
#VOLUME: ""
#HISPEED 00
#MEASUREHS 00
#00114:00140000
#00116:0000000013000014
#00118:00000012
#0011a:14
#00112:2500000000000013
#00314:0000000000000015
#00319:00151515
#00317:0013001300130000
#00312:00000013000000130000001300000000
#00315:00000000001300000013000000000000
#00417:15000013
#00412:0015130013001300
#00416:0000000000140000
#00415:0000001300000000
#00418:00000000000000130000000000000000
#0041b:0000130013000013
#01418:00000013000013000000130000000000
#01415:00001300001300001300000013000000
#01412:1300001300130000
#0141b:00231323
#0101b:00001313
#01015:00000013001300001300000013000000
#01012:0000001300130000
#01018:0013131300130000
#01016:14
#0121b:0013001313000000
#01215:00000013000000130000130013000000
#01218:0000130000131300
#01212:13000000001300001300000000000000
#01216:13
#01612:00000013001300000000130000001300
#0161b:13231313
#01615:0013001313002300
#01618:00130000000000130000130000000000
#01616:13
#01716:0000140000001313
#01717:0013
#01712:00000013
#0171b:0000000000000013
#01714:25
#01812:00000013000000000000130000001300
#0181b:0000001313000000
#01819:00130000
#01814:00000000001300000000000000000000
#01816:00000000000000130000000013000000
#01817:0013000000130000
#01815:0000000000000017
#01916:15000013001300130000000000000000
#01919:0012001200000000
#0191a:00141414
#01914:00000000000000000013001300000000
#01917:0000000000140000
#01912:00000000000000000000000000130013
#01915:0000000000000016
#02015:00001300000000130000000000000000
#02018:00000013000013000000000000000000
#02012:0000140000140013
#0201a:14001414
#02017:0000000000130000
#02016:00000013
#02212:0000000000130013
#02217:0000000000130013
#0221b:0013
#02216:00000013
#0231b:00131313
#02316:13
#02315:00000013000000000013001300000000
#02318:00001300001300130000000000130000
#02312:00000000130000001300000013000013
#02419:1513
#02413:00140000
#02417:00140000
#02416:0013
#02415:00000012
#02414:15
#02518:000000140000000013000000
#02515:001300
#02517:000000000013000000001300
#02513:0014
#0251a:00000014
#02512:24140000
#02519:000000000000140000000013
#02516:000000000000001300000000
#02514:00000014
#02510:41
#03815:00000013000013000000001300001300
#03818:00001300000000130000130000000013
#03812:00141414
#0381a:00141414
#03212:1900000014152600
#03216:0014001400000000
#03217:0014
#0321a:00140000
#0321c:12
#03215:00140000
#03218:00000026
#04316:00000013000000000000130000001300
#0431b:0000000000130013
#04317:00000000000000130000000013000000
#04312:00000013
#04313:0013000000000000
#04319:00150000
#04314:0000001300000000
#0431a:0014
#04318:26
#04418:00000000130000130000000000000000
#04412:1313000013001300
#04415:00000013000013000000000000000000
#0441b:00000000001300000000130000000000
#04417:00001313
#04416:00000000000000000000130000000013
#0441a:0000000000000013
#04215:00000013000000000000000000000013
#04218:00130000
#04212:1313001400130013
#0421b:00000000001300001300000013000000
#04216:00001313
#04217:0000000000130000
#06018:00000013000013000000130000000000
#06015:00001300000000130000130000000000
#06017:17
#06012:00130000170000001400000024000000
#0601b:00000000001300000000000000000000
#0601a:00001424
#06412:000000000000001200000000000000130000160000000000
#06418:001200001200000012000000000000000000160000000000
#0641b:0013
#06415:0000000000000013
#0641c:12
#0641a:001200000012000000000000
#06416:000000120000120000000012000000000000000000000000
#06414:000000000012000000120000000000000000000000000000
#06612:0014001300140000
#06618:00000013000000000000000000000000
#06616:14130013
#0661a:0000001400000000
#0661b:0000000000130000
#06617:0000000013000013
#06515:00130000130000000013000000000000
#0651a:0014000000140014
#06518:23000000001300001300000000000000
#0651b:00130000
#06512:2300001413000014
#06516:00000014
#0651f:11
#06816:0014000000000014
#06812:14141616
#0681a:00140000
#06815:0000001300000000
#06818:00000000000000130000160000000000
#07814:00000014000000000000000000000000
#0781a:00140014
#07816:00001400000014000000141400001414
#07817:00000000000000140000000000000000
#07812:0014
#07912:0000000014000000000000000000000000000000000000000013330000000000
#07917:00000013000000000000000000000000
#07915:00130000
#07919:00000000001300000000000000000000
#07916:0000001414000000
#0791b:0000000000000000000000000000000000000013330000000000000000000000
#07914:00000000000000000000001400000000
#0791a:0000000000000014
#08013:0016000000000000
#08017:0000001600002400
#08012:2600000000000000240000000000000000000000000000000034343434343434
#0801a:24
#08018:0026
#0801b:00000023
#00017:0000000000000000000000000000000000000000000000000000001400000000
#00012:00000014
#00216:00000013000000000000000000001300
#0021a:0000000000000014
#00212:00000000000000130000000015000000
#00214:00000000001300000000000000000000
#00217:0000001300120000
#00219:00131500
#0021b:0013000000000000
#00215:0013
#00218:00000013
#00612:0013000015000014
#00617:00000013000000000000120000001300
#0061b:00000000000000130000000000000000
#00619:00000000001300000000000015000000
#00616:0000001300000000
#00614:00130000
#00618:0013
#00615:00000013
#00712:00151515
#00716:0013001300130000
#00718:00000013001300000000000000000000
#0071b:00000000000000001300001300000000
#00717:00000000000000000000000000130000
#00715:0000000000000013
#00719:00000000000000000000000000000013
#00816:00000000000000001400000000000000000000000000000014000000000000000000000000000000001400000000000000000000000000000000000000000000
#0081b:1313
#00812:16131626
#00818:00160026
#0111b:0000000000130000
#01113:00000013
#01116:0000000000000013
#0111a:0000000000000013
#01117:1400000000131300
#01118:00140000
#01119:0014
#01316:0000000000000014
#01312:26151413
#0151b:0000000000130000
#01516:0000000000130000
#01517:00000013
#01519:0000150000000013
#01514:0000000000000013
#0151a:0014
#01518:16
#01512:00000023
#02116:23140000
#02117:0000000015001313
#0211b:00000013
#02112:0000000000000014
#0261c:000000121212121200121212
#02617:000000000000001200120012001200120000001200120012
#0261a:000012
#02615:000000000000000000000000000000000012000000000000
#02612:26
#0261b:23
#02714:000000140000000000000013
#02718:000000001300000000140000
#02716:000000000013000000001300
#02719:0014
#02712:00000014
#0271a:00140000
#02713:0014
#02717:270000000000001300000000
#02715:000013
#02918:000000140012001300000000
#02917:000000001200000000000013
#02913:0014
#02916:000000000000000000000012000000001300000000000000
#0291a:00000014
#02919:000000140013
#02915:0000001200000000
#02914:00000014
#02912:2c140000
#03012:270000121212121212000000
#03016:000000000000001200120012001200120012000000000000
#03014:000000000000000000121212
#03018:000000000000000000000000000000000000001200120012
#0301b:23
#03312:26000024000000002600000024001400
#03316:00002400002400240000240000002400
#03318:00260026
#0331a:2424
#03310:41
#03416:00001400001400140000000000001400
#0341a:00000014000000001400000014000000
#03412:0000141414001400
#03418:0000000000130000
#03415:00000000000000000000001300000000
#0351a:14
#03517:00001300000000130000000000000000
#0351b:00000013000000000000001300130000
#03515:00000000130000000000001300000000
#03519:00000000001300001300000000000000
#03513:0000001300000000
#03512:0000000013130013
#03518:0000000000000013
#0361a:14
#03618:0014000000002600
#03616:13
#03614:0000001400000000
#03617:00130000
#03615:0014
#03612:00000026
#0371a:00000024000000000000000024001400
#03716:00002400002400240000240000002400
#03718:2626
#03712:24262426
#02813:001400001500001600001700
#02814:000015000016000017000018
#02817:13
#02818:00130000
#02819:0013
#0281a:00000013
#02812:23242526
#0411a:0013000000000014
#04117:00000013000000000000000000000000
#04112:26151413
#04119:0000001300000000
#04116:00000000000000130000000000000000
#04118:0000000000130000
#04115:00000000000000000000001300000000
#04110:41
#04519:1313000000000000
#04515:00000013000000000000000000000000
#04512:26151413
#04518:0000231300000000
#04514:00000000000000130000000000000000
#04517:0000000013130000
#04513:00000000000000000000001300000000
#04516:0000000000002313
#0451b:0000000000000013
#04614:00000013000000000000000000000000
#04612:1313001400140000
#04618:00000000001300000000000000000000
#0461a:00001414
#04616:00231323
#04617:00000000000000000000130000000013
#04613:0000000000000013
#04717:0000000000130013
#04712:0000000000130013
#04714:1313000000000000
#04718:26000013000000000000000000000000
#04719:00000000150000130000000000000000
#04715:0000231300000000
#0471a:0014
#04716:00001323
#0471b:00000013
#04818:16261616
#04816:00160000000000160000000000000000
#04814:0016001600000000
#04812:00000016001600000000160000001300
#04815:00000000000000000000000000000013
#04013:0015000000000000
#04018:00000000000015001600000026000013
#04019:13
#04014:00130000
#04012:16000026
#0401b:0000000000000013
#0391b:0013000013130013
#03919:15130000
#03914:00000000001300000000000000000000
#03917:0000001300000000
#03912:15000000000000130000001300130000
#03916:00000013000000000000000000000000
#03915:0000000013000013
#03918:00000000000000000000001300000000
#00914:00140000
#00913:0014
#00912:00000014
#00916:0000000000000014
#00915:24
#00910:41
#05112:0013000000000000
#05114:00000013000000000000000000000000
#0511a:0000001300000000
#05118:00000000000000130000000000000000
#05116:0000130013000014
#05113:0000000000130000
#05115:00000000000000000000001300000000
#05117:13000013
#0491b:0013000000000000
#04918:23000013000000000000000000000000
#04915:00130000
#04913:0000001300000000
#04916:00000000000000130000000000001400
#04919:0013
#0491a:0000000000130000
#04917:00000000000000000000001300000000
#04914:00000013
#05012:14141414
#0501a:14001414
#05015:0013001300000000
#05018:00000013001300000000000000000000
#05016:0000000000140000
#05019:00000000000000000000000000000013
#0501b:0000000000000013
#0521a:14141414
#05212:14001414
#05218:0013001300000014
#05215:00000013001300000000000000000000
#05216:0000000000140000
#05214:00000000000000000000000000000014
#00518:00140000
#00517:0013
#00516:0000000000001214
#00512:14
#0051b:0000000000000013
#00519:25
#05717:1313000000000000
#05712:24000013001300000000000000000000
#05719:00000000000000130000130000000000
#05714:00000000000000002600001300130000
#0571b:00000000000000000000000000000013
#05716:00240026
#0581b:0000000013000000000000000000130000000000000000000000000000333300
#05816:28000013281300000000000000000000
#05812:0000000024000014
#05817:0000000024220014
#0581a:00000024
#05815:00000024
#05916:0014000000000013
#0591b:00000013000000001300000000000000
#05914:00000000140000000013001300000000
#05912:00000000000014000000000000130013
#05919:00000000001300000000000015000000
#05917:00000000000000130000000000000000
#05918:0000000000130000
#06116:1313240026000000
#0611b:00000013001300000000000000000000
#06114:00000000000000130000130026000000
#06119:00000000000000000000001300130000
#06112:00000000000000000000000000000013
#0611a:24
#06212:28001300280000130000000024000000
#06217:00000013001300000000220024000000
#0621a:0000000024000014
#06215:0000000024000014
#0631a:00140000000000000000000000000000
#06314:00001414000000000000000000000000
#06318:00000000141400000000000000000000
#06312:00000000000013001300000000130000
#06317:00000000000000130013000000001300
#0631b:00000000000000000000001300000000
#06316:00000000000000000000001300000000
#06717:00000013001300130000000000000000
#06715:0012001200140016
#06712:00141414
#06719:00000000000000000013001300000000
#0671b:00000000000000000000000000130013
#0701a:0014000014000000
#07016:14000012001200120000000013000000
#07018:0000121200000000
#07017:0000000000000013
#06918:00130000130000000013000000000000
#06912:0014130000140014
#06915:23000000001300001300000000000000
#0691a:0000001400000014
#0691b:2313
#06916:00000014
#07116:00120012000000000000000000000000
#07118:0012000013130000
#07115:00000000000000000013001300000000
#0711c:00120000
#07112:0000001200000013
#0711b:00000013
#07217:0013000000000000
#07215:0000000000150000
#07212:00140026
#07216:0000001400000000
#07219:0015
#0721b:13
#07218:00000026
#07312:26000024000000002600000026001400
#0731a:00240000
#07318:26000000000000260000260026000000
#07314:00000000002600000000000000000000
#07316:0026000000000024
#0731f:21
#07416:00001400120000140000001200001400
#0741a:00000014000000001400000014000000
#07418:00000000001200000000120000000000
#07412:0000001414001400
#07410:41
#0751a:14000000001400140000001400140000
#07512:0014140014140014
#07517:00000012000012001500000000001500
#07514:00000000000000000000001500000000
#07619:15
#07617:0015140000002700
#07615:14
#07614:0000001500000000
#07612:00001725
#0771a:00000024000000000000000000001400
#07718:26002626
#07712:26000000240000260000260026000000
#07716:00000000002600000000000000002400
#07714:0026000000000000
#08116:24001400240000160000160026000000
#08112:00000014001400000000000000000000
#08114:00000000000000002600001600160000
#08118:00000000000000000000000000000016
#08218:00001600000000160000000000000000
#08216:28000016281600000000260000001600
#08212:0000000000130013
#0821b:00000013
#08214:00002626
#08516:24001400240000002600001600160000
#0851a:00000014001400000000000000000000
#08514:00000000000000160000160026000000
#08512:00000000000000000000000000000016
#08510:41
#08612:28001600280000160000000013000000
#08614:00000016001600000000260000001600
#0861b:0000000000130013
#08616:00002626
#08316:0014000000140000
#0831a:00000014000000000000000000000000
#08312:00161616
#08318:00000000001400140000000000001600
#08315:0000001400000000
#08317:00000000000000000014001400000000
#08418:0014001200000000
#08414:14
#08416:00000000120000120000140000001400
#0841a:00001424
#08412:00001424
#08718:00001414001400000000000000000000
#08712:0000140000130000
#08714:00000000000000140000000013000000
#0871a:0014
#08717:00000000000000000000001300000000
#08719:00000000000000000000000000130000
#08716:0000000000000013
#0871b:00000000000000000000000000000013
#08816:0014281400000000
#08812:28132816
#0881b:0013
#08818:00000016
#03112:27131217
#03114:000000000017000000000000
#03113:001500
#03116:00180000
#03115:000000000000190000000017
#0311b:00000013
#03118:000000000015
#08912:000000000000000000000000000000000000001600000000000000000000000000000000000000000000000000000000000000000000000000000000000000000000000000000000000000000000000000000000000000000000000000000000000000000000000000000000000000000000000000000000000000000000000000000000000000000000000000000000000000000000000000000000000000000000000000000000000000000000000000000000000000000000000000000000000000000000000000000000000000000000000000000000000000000000000000000000000000000000000000000000000000000000000000000000000000000000000000000000000000000000000000000000000000000000000000000000000000000000000000000000000000000000000000000000000000000000000000000000000000000000000000000000000000000000000000000000000000000000000000000000000000000000000000000000000000000000000000000000000000000000000000000000000000000000000000000000000000000000000000000000000000000000000000000000000000000000000000000000000000000000000000000000000000000000000000000000000000000000000000000000230000000000000000000000000000000000000000000000000000000000000000000000000000000000000000000000000000000000000000000000000000000000000000000000000000000000000000000000000000000000000000000000000000000000000000000000000000000000000000000000000000000000000000000000000000000000000000000000000000000000000000000000000000000000000000000000000000000000000000000000000000000000000000000000000000000000000000000000000000000000000000000000000000000000000000000000000000000000000000000000000000000000000000000000000000000000000000000000000000000000000000000000000000000000000000000000000000000000000000000000000000000000000000000000000000000000000000000000000000000000000000000000000000000000000000000000000000000000000000000000000000000000000000000000000000000000000000000000000000000000000000000000000000000000000000000000000000000000000000000000000000000000000000000000000000000000000000000000000000000000000000000000000000000000000000000000000000000000000000000000260000000000000000000000000000000000000000000000000000000000000000000000000000000000000000000000000000000000000000000000000000000000000000000000000000000000000000000000000000000000000000000000000000000000000000000000000000000000000000000000000000000000000000000000000000000000000000000000000000000000000000000000000000000000000000000000000000000000000000000000000000000000000000000000000000000000000000000000000000000000000000000000000000000000000000000000000000000000000000000000000000000000000000000000000000000000000000000000000000000000000000000000000000000000000000000000000000000000000000000000000000000000000000000000000000000000000000000000000000000000000000000000000000000000000000000000000000000000000000000000000000000000000000000000000000000000000000000000000000000000000000000000000000000000000000000000000000000000000000000000000000000000000000000000000000000000000000000000000000000000000000000000000000000000000000000000000000000000000000000000240000000000000000000000000000000000000000000000000000000000000000000000000000000000000000000000000000000000000000000000000000000000000000000000000000000000000000000000000000000000000000000000000000000000000000000000000000000000000000000000000000000000000000000000000000000000000000000000000000000000000000000000000000000000000000000000000000000000000000000000000000000000000000000000000000000000000000000000000000000000000000000000000000000000000000000000000000000000000000000000000000000000000000000000000000000000000000000000000000000000000000000000000000000000000000000000000000000000000000000000000000000000000000000000000000000000000000000000000000000000000000000000000000000000000000000000000000000000000000000000000000000000000000000000000000000000000000000000000000000000000000000000000000000000000000000000000000000000000000000000000000000000000000000000000000000000000000000000000000000000000000000000000000000000000000000000000000000000000000000000
#08916:00000028
#08914:22
#08917:26
#0891b:00230000
#08918:0026
#05418:000000000000000000000000000000000000000000000000000000000000000000000000000000000000000000000000000000000000000000000000000000000000000000000000000000000000000000000000000000000000000000000000000000000000000000000000000000000000000000000000000000000000000000000000000000000000000000000000000000000000000000000000000000000000000000000000000000000000000000000000000000000000000000000000000000000000000000000000000000000000000000000000000000000000000000000000000000000000000000000000000000000000000000000000000000000000000000000000000000000000000000000000000000000000000000000000000000000000000000000000000000000000000000000000000000000000000000000000000000000000000000000000000000000000000000000000000000000000000000000000000000000000000000000000000000000000000000000000000000000000000000000000000000000000000000000000000000000000000000000000000000000000000000000000000000000000000000000000000000000000000000000000000000000000000000000000000000000000000000000000000000000000000000000000000000000000000000000000000000000000000000000000000000000000000000000000000000000000000000000000000000000000000000000000000000000000000000000000000000000000000000000000000000000000000000000000000000000000000000000000000000000000000000000000000000000000000000000000000000000000000000000000000000000000000000000000000000000000000000000000000000000000000000000000000000000000000000000000000000000000000000000000000000000000000000000000000000000000000000000000000000000000000000000000000000000000000000000000000000000000000000000000000000000000000000000000000000000000000000000000000000000000000000000000000000000000000000000000000000000000000000000000000000000000000000000000000000000000000000000000140000000000000000000000000000000000000000000000000000000000000000000000000000000000000000000000000000000000000000000000000000000000000000000000000000000000000000000000000000000000000000000000000000000000000000000000000000000000000000000000260000000000000000000000000000000000000000000000000000000000000000000000000000000000000000000000000000000000000000000000000000000000000000000000000000000000000000000000000000000000000000000000000000000000000000000000000000000000000000000000000000000000000000000000000000000000000000000000000000000000000000000000000000000000000000000000000000000000000000000000000000000000000000000000000000000000000000000000000000000000000000000000000000000000000000000000000000000000000000000016000000000000000000000000000000000000000000000000000000000000000000000000000000000000000000000000000000000000000000000000000000000000000000000000000000000000000000000000000000000000000000000000000000000000000000000000000000000000000000000000000000000000000000000000000000000000000000000000000000000000000000000000000000000000000000000000000000000000000000000000000000000000000000000000000000000000000000000000000000000000000000000000000000000000000000000000000000000000000000000000000000000000000000000000000000000000000000000000000000000000000000000000000000000000000000000000000000000000000000000000000000000000000000000000000000000000000000000000000000000000000000000000000000000000000000000000000000000000000000000000000000000000000000000000000000000000000000000000000000000000000000000000000000000000000000000000000000000000000000000000000000000000000000000000000000000000000000000000000000000000000000000000000000000000000000000000000000000000000000000000000000000000000000000000000000000000000000000000000000000000000000000000000000000000000000000000000000000000000000000000000000000000000000000000000000000000000000000000000000000000000000000000000000000000000000000000000000000000000000000000140000000000000000000000000000000000000000000000000000000000000000000000000000000000000000000000000000000000000000000000000000000000000000000000000000000000000000000000000000000000000000000000000000000000000000000000000000000000000000000000
#05412:14151600
#05414:00000014000014000000000000001400
#05417:0014000000000000
#0541a:14
#05419:00250000
#05317:00000000000014000000000000000014
#05315:00001400000000140000000000001400
#05312:14141414
#05316:00000000000000000000141400000000
#0531a:24241424
#05318:00000014000000000000000000000000
#0551a:14141414
#05516:00000000000000000000141400001400
#05512:24241424
#05517:00001400000000140000000000000000
#05515:0000001400000000
#05514:00000014000000000000000000000000
#05612:14141426
#05615:00000000001300130000000000000000
#05618:0000001300002600
#05614:0000000000150000
#0561a:14141400
#05616:0014000000000000
#00354:0000000000000015
#00359:00000015
#00457:15
#00452:0015000000006300
#00154:00340000
#00156:0033
#00152:3500000000000053
#0105b:00000013
#01055:00000013
#01255:00000013
#01252:13
#01258:00000013
#01756:0000440000000063
#01757:0033
#01754:35
#02052:00140000
#0205a:14001444
#02252:0000000000000063
#02257:0000000000230013
#0225b:0053
#02356:23
#0255c:12
#02552:14
#02652:16
#0265b:13
#02757:17
#03652:00340036
#0365a:4444
#03658:0024000000003600
#03656:53
#03654:0000002400000000
#03657:00630000
#03655:0044
#03252:1900000014254600
#03257:0064
#0325a:00140000
#03258:00000046
#04252:0000001400000000
#0425b:00000013
#0585a:00000044
#05852:0000000034000034
#05857:0000000000000054
#05856:38480000
#0645b:0013
#06458:00000016
#06452:0000000000131600
#0785a:00140014
#07852:0014
#07856:00000000000000000000000000000054
#08053:0026000000000000
#08052:36543600
#0805a:64
#08058:00464600
#08057:0000002600000000
#0805b:00000013
#00057:0000000000000000000000000000000000000000000000000000002400000000
#00052:00000054
#00256:0000000000000053
#00259:0045
#00252:00000035
#00856:00000000000000000000000000000000000000000000000000000000000000000000000000000000002400000000000000000000000000000000000000000000
#0085b:0063
#00858:00460046
#00852:36003646
#01455:00000013
#0145b:00000013
#0165b:00000043
#00657:0000000000000053
#00652:0035
#00659:00000045
#0185b:0053
#01857:0000000000230000
#01852:0000000000000063
#01856:00000063
#01855:0000000000000047
#02156:43340000
#02157:0000000045000053
#02152:0000000000000034
#02459:4543
#02453:00340000
#02455:00000032
#0305b:13
#03052:17
#03152:17
#03155:0019
#03352:3600000036000034
#03358:00460046
#03452:0014
#0345a:00000014
#03456:0000000000000064
#0375a:0000000000000044
#03758:4646
#03752:00360036
#0385a:00440044
#03852:0034
#02952:1c
#04552:36353433
#03552:0033
#0355b:00000000000000000000004300000000
#04652:0000001400000000
#0465a:00000014
#04858:00004646
#04852:0000000000360000
#04053:0025000000000000
#04058:0000462536004600
#04059:63
#04054:00530000
#04052:36003646
#03952:65000000000000000000001300000000
#0395b:0013
#00954:00340000
#00953:0034
#00952:00000034
#00955:34
#01158:00440000
#01159:0044
#01157:44
#01352:36353433
#01559:00450000
#0155a:0044
#01558:46
#01956:25
#05156:00433300
#05157:33000043
#04955:00330000
#04959:0043
#04954:00000033
#04958:43
#0505a:14001414
#05052:00140014
#05252:14001414
#0525a:00140014
#00558:00440000
#00557:0043
#00559:45
#0055b:0000000000000063
#06052:00000034
#0605a:00000044
#05752:34
#05756:00440046
#05754:0036
#0615a:44
#06156:00344600
#06154:00000036
#06252:48380034
#0625a:0000000044000044
#06255:0000000000000064
#06356:00000000000000000000001300000000
#0635b:00000000000000000000001300000000
#0655a:0044000000440054
#06552:0000003400000000
#06656:24530053
#06652:0000002300000013
#0665b:0000000000230000
#06657:0000000063000063
#06852:14003636
#0685a:00140000
#06858:0000000000460000
#06952:0034000000340064
#0695a:0000004400000000
#07056:24000053
#07057:0000000000000063
#07052:0000000000000013
#07257:0023000000000000
#07255:0000000000250000
#07252:00543546
#07256:0000002400000000
#07259:0065
#0725b:63
#0725a:00440000
#07258:00000046
#0715c:00620000
#07152:0000006200000063
#0715b:00000063
#07352:36000034000000003600000036003400
#0735a:00440000
#07356:0046000000000000
#07354:00000000003600000000000000000000
#07358:46000000000000460000460046000000
#07452:0014
#0745a:00000014
#07456:0000000000000064
#07659:4545
#07657:0025640000003700
#07655:54
#07654:0000002500000000
#07652:00354735
#07552:0034
#0755a:00000000000000000000004400000000
#0775a:00000044000000000000000000004400
#07758:46004646
#07752:36000000340000360000360036000000
#07756:00000000004600000000000000000000
#07754:0036000000000000
#07956:0000005454000000
#0795b:0000000000000000000000000000000000000023000000000000000000000000
#07954:00000000000000000000006400000000
#07952:0000000000000000000000000000000000000000000000000023000000000000
#08156:00440046
#08154:0036
#08152:34
#08256:3800480000460056
#08254:00003636
#08556:00344600
#08554:00000036
#0855a:44
#08652:48380000
#08656:00004646
#08654:0000000000360066
#08352:00000036
#08358:0000000000000046
#08458:0044000000000000
#08454:34
#08456:0000320000000024
#0845a:00004454
#08452:00000034
#08752:00140000
#0875a:0054
#08852:38003836
#08856:00480000
#08858:00000046
#04152:36353433
#04359:00450000
#0435a:0044
#04358:46
#08952:000000000000000000000000000000000000006600000000000000000000000000000000000000000000000000000000000000000000000000000000000000000000000000000000000000000000000000000000000000000000000000000000000000000000000000000000000000000000000000000000000000000000000000000000000000000000000000000000000000000000000000000000000000000000000000000000000000000000000000000000000000000000000000000000000000000000000000000000000000000000000000000000000000000000000000000000000000000000000000000000000000000000000000000000000000000000000000000000000000000000000000000000000000000000000000000000000000000000000000000000000000000000000000000000000000000000000000000000000000000000000000000000000000000000000000000000000000000000000000000000000000000000000000000000000000000000000000000000000000000000000000000000000000000000000000000000000000000000000000000000000000000000000000000000000000000000000000000000000000000000000000000000000000000000000000000000000000000000000000000000630000000000000000000000000000000000000000000000000000000000000000000000000000000000000000000000000000000000000000000000000000000000000000000000000000000000000000000000000000000000000000000000000000000000000000000000000000000000000000000000000000000000000000000000000000000000000000000000000000000000000000000000000000000000000000000000000000000000000000000000000000000000000000000000000000000000000000000000000000000000000000000000000000000000000000000000000000000000000000000000000000000000000000000000000000000000000000000000000000000000000000000000000000000000000000000000000000000000000000000000000000000000000000000000000000000000000000000000000000000000000000000000000000000000000000000000000000000000000000000000000000000000000000000000000000000000000000000000000000000000000000000000000000000000000000000000000000000000000000000000000000000000000000000000000000000000000000000000000000000000000000000000000000000000000000000000000000000000000000000000660000000000000000000000000000000000000000000000000000000000000000000000000000000000000000000000000000000000000000000000000000000000000000000000000000000000000000000000000000000000000000000000000000000000000000000000000000000000000000000000000000000000000000000000000000000000000000000000000000000000000000000000000000000000000000000000000000000000000000000000000000000000000000000000000000000000000000000000000000000000000000000000000000000000000000000000000000000000000000000000000000000000000000000000000000000000000000000000000000000000000000000000000000000000000000000000000000000000000000000000000000000000000000000000000000000000000000000000000000000000000000000000000000000000000000000000000000000000000000000000000000000000000000000000000000000000000000000000000000000000000000000000000000000000000000000000000000000000000000000000000000000000000000000000000000000000000000000000000000000000000000000000000000000000000000000000000000000000000000000000340000000000000000000000000000000000000000000000000000000000000000000000000000000000000000000000000000000000000000000000000000000000000000000000000000000000000000000000000000000000000000000000000000000000000000000000000000000000000000000000000000000000000000000000000000000000000000000000000000000000000000000000000000000000000000000000000000000000000000000000000000000000000000000000000000000000000000000000000000000000000000000000000000000000000000000000000000000000000000000000000000000000000000000000000000000000000000000000000000000000000000000000000000000000000000000000000000000000000000000000000000000000000000000000000000000000000000000000000000000000000000000000000000000000000000000000000000000000000000000000000000000000000000000000000000000000000000000000000000000000000000000000000000000000000000000000000000000000000000000000000000000000000000000000000000000000000000000000000000000000000000000000000000000000000000000000000000000000000000000000
#08958:0066
#08957:66
#0895b:00630000
#04759:00450000
#0475a:0044
#04758:46
#05458:000000000000000000000000000000000000000000000000000000000000000000000000000000000000000000000000000000000000000000000000000000000000000000000000000000000000000000000000000000000000000000000000000000000000000000000000000000000000000000000000000000000000000000000000000000000000000000000000000000000000000000000000000000000000000000000000000000000000000000000000000000000000000000000000000000000000000000000000000000000000000000000000000000000000000000000000000000000000000000000000000000000000000000000000000000000000000000000000000000000000000000000000000000000000000000000000000000000000000000000000000000000000000000000000000000000000000000000000000000000000000000000000000000000000000000000000000000000000000000000000000000000000000000000000000000000000000000000000000000000000000000000000000000000000000000000000000000000000000000000000000000000000000000000000000000000000000000000000000000000000000000000000000000000000000000000000000000000000000000000000000000000000000000000000000000000000000000000000000000000000000000000000000000000000000000000000000000000000000000000000000000000000000000000000000000000000000000000000000000000000000000000000000000000000000000000000000000000000000000000000000000000000000000000000000000000000000000000000000000000000000000000000000000000000000000000000000000000000000000000000000000000000000000000000000000000000000000000000000000000000000000000000000000000000000000000000000000000000000000000000000000000000000000000000000000000000000000000000000000000000000000000000000000000000000000000000000000000000000000000000000000000000000000000000000000000000000000000000000000000000000000000000000000000000000000000000000000000000000000000000000000000000000000000000000000000000000000000000000000000000000000000000000000000000000000000000000000000000000000000000000000000000000000000000000000000000000000000000000000000000000000000000000000000000000000000000000000000000000000000000000000000000000000000000000000000000000000000000000000000000000000000000000000000000000000000000000000000000000000000000000000000000000000000000000000000000000000000000000000000000000000000000000000000000000000000000000000000000000000000000000000000000000000000000000000000000000000000000000000000000000000000000000000000000000000000000000000000000000000000000000000000000000000000000000000000000000000000000000000000000000000000000000000000000000000000000000000000000000000000026000000000000000000000000000000000000000000000000000000000000000000000000000000000000000000000000000000000000000000000000000000000000000000000000000000000000000000000000000000000000000000000000000000000000000000000000000000000000000000000000000000000000000000000000000000000000000000000000000000000000000000000000000000000000000000000000000000000000000000000000000000000000000000000000000000000000000000000000000000000000000000000000000000000000000000000000000000000000000000000000160000000000000000000000000000000000000000000000000000000000000000000000000000000000000000000000000000000000000000000000000000000000000000000000000000000000000000000000000000000000000000000000000000000000000000000000000000000000000000000000000000000000000000000000000000000000000000000000000000000000000000000000000000000000000000000000000000000000000000000000000000000000000000000000000000000000000000000000000000000000000000000000000000000000000000000000000000000000000000000000000000000000000000000000000000000000000000000000000000000000000000000000000000000000000000000000000000000000000000000000000000000000000000000000000000000000000000000000000000000000000000000000000000000000000000000000000000000000000000000000000000000000000000000000000000000000000000000000000000000000000000000000000000000000000000000000000000000000000000000000000000000000000000000000000000000000000000000000000000000000000000000000000000000000000000000000000000000000000000000000
#05452:00156636
#0545a:14
#05352:00340034
#0535a:4444
#0555a:00440044
#05552:3434
#05652:14001446
#05654:0000000000250000
#0565a:00145400
#05658:00000046
#0075b:0013
#04452:00000013
#0003b0:0013
#000390:000000000000000000000000000000000000000000000000000000000000005300005300000000000000000000000000000000000000000000000000
#0003a0:000000000000000053000000000000
#000380:0000000000000000000000535300000000000000
#000370:000000000000000000000000000000000000000000000000000000000000000000000000000000000000000000000000000000000000000000000000000000000000000000000000000000000000000000000000000000000000000000000000000000000000000000000000000000000000000000000000000000000000000000000000000000000000000000000000000000000000000000000000000000000000000000000000000000000000000000000000000000000000000000000000000000000000000000000000000000000000000000000000000000000000000000000000000000000000000000000000000000000000000000000000000000000000000000000000000000000000000000000000000000000000000000000000000000000000000000000000000000000000000000000000000000000000000000000000000000000000000000000000000000000000000000000000000000000000000000000000000000000000000000000000000000000000000000000000000000000000000000000000000000000000000000000000000000000000000000000000000000000000000000000000000000000000000000000000000000000000000000000000000000000000000000000000000000000000000000000000000000000000000000000000000000000000000000000000000000000000000000000000000000000000000000000000000000000000000000000000000000000000000000000000000000000000000053000000000000000000000000000000000000000000000000000000000000000000000000000000000000000000000053000000000000000000000000000000000000000000000000000000000000005300000000000000000000000000000000000000000000000000000000000000530000000000000000000000000000000000000000000000000000000000000000530000000000000000000000000000230000000000000000000000000000000000000000000000000000000000000000000000000000000000000000000000000000000000000000000000000000000000000000000000000000000000000000000000000000000000000000000000000000000000000000000000000000000000000000000000000000000000000000000000000000000000000000000000000000000000000000000000000000000000000000000000000000000000000000000000000000000000000000000000000000000000000000000000000000000000000000000000000000000000000000000000000000000000000000000000
#000360:000000000000000000000000000000000000000000000000000000000000000000000000005300530053005300000000000000000000000000000000
#000361:0014
#000341:000000000000000000000000000000000000000000000000000000000000005400005400000000000000000000000000000000000000000000000000
#000351:000000000000000054000000000000
#000331:000000000000000000000000000000000000000000000000000000000000000000540000540053005300530053000000000000000000000000000000
#000321:000000000000000000000000000000000000000000000000000000000000000000000054005300530053005300340000000000000000000000000000
#000371:0000000000000000000000000000000000000000000000000000005400000000
#001321:25
#001351:0014000000000000
#0013a1:00240000
#001371:0000001300000000
#0013b1:0023
#001391:0000000000120000
#0013c1:00000022
#001321:0000000000000013
#002361:0023000000000000
#002361:0000000000000013
#003321:0023000000000000
#004321:00000013
#004361:0000000000000023
#005371:0014000000000000
#005321:00240000
#005361:0000001300000000
#005321:0023
#005351:0000000000120000
#005321:00000022
#0053b1:0000000000000013
#006371:0023000000000000
#006371:0000000000000013
#0073b1:0023000000000000
#0083b1:0013
#008361:00000000000000000000000000000000000000000000000000000000000000000000000000000000005400000000000000000000000000000000000000000000
#008381:00000026
#0083b1:0000000000000013
#008381:00000000000000000000000000000033
#0093b1:23
#0093a1:0013230000000000
#009371:00000033000000000000000000000000
#009391:0000001323000000
#009361:00000000000000330000000000000000
#009381:0000000000132300
#009351:00000000000000000000003300000000
#010321:1323000000000000
#010321:0000000000000013
#010351:00000000000000000000000000000033
#011321:23
#011331:0013230000000000
#011361:00000033000000000000000000000000
#011341:0000001323000000
#011371:00000000000000330000000000000000
#0123b1:0000000000000013
#012371:00000000000000000000000000000033
#013391:23
#0133a1:0013000000000000
#013361:00000033000000000000000000000000
#013381:00230000
#013391:0000001300000000
#013351:00000000000000330000000000000000
#013371:0023
#013381:0000000000130000
#013341:00000000000000000000003300000000
#013361:00000023
#0143b1:1323000000000000
#014321:0000000000000013
#014361:00000000000000000000000000000033
#015341:23
#015331:0013000000000000
#015371:00000033000000000000000000000000
#015351:00230000
#015341:0000001300000000
#015381:00000000000000330000000000000000
#015361:0023
#017391:15
#017331:0025000000000000
#017321:00140000
#017381:0000002400000000
#0173a1:0013
#017351:0000000000230000
#017361:0000000000000013
#018321:0023000000000000
#0183b1:00001323
#018371:0000000000530000
#018360:00000013
#018320:0000000000000033
#019360:55
#019320:0026000000000000
#021330:13
#021380:0023000000000000
#0213a0:00140000
#021340:0000002400000000
#021320:0015
#021380:0000000000250000
#021370:0000000000000013
#0223b0:0023000000000000
#022361:0013000000000000
#022321:00230000
#0223b0:00130000
#022370:0000002300000000
#022321:0000001300000000
#022361:0023
#0223b0:00001323
#022370:0000000000530000
#022320:0000000000000013
#023360:53
#023320:0023000000000000
#024370:00000012
#0253c0:22
#032370:0014
#032320:0000000000550000
#032380:00000026
#033360:0000000000000014
#0343a0:0024000000000000
#034360:0000000000000014
#035320:24
#036360:13
#036380:0054000000000000
#036320:00240000
#036371:00130000
#036341:0000005400000000
#0363a1:0024
#037361:0000000000000014
#038321:0024000000000000
#039321:1522000000000000
#040391:13
#040331:0055000000000000
#040381:00260000
#040340:00130000
#040380:0000005500000000
#040320:0026
#042380:1323000000000000
#044370:1323000000000000
#046370:1323000000000000
#054380:000000000000000000000000000000000000000000000000000000000000000000000000000000000000000000000000000000000000000000000000000000000000000000000000000000000000000000000000000000000000000000000000000000000000000000000000000000000000000000000000000000000000000000000000000000000000000000000000000000000000000000000000000000000000000000000000000000000000000000000000000000000000000000000000000000000000000000000000000000000000000000000000000000000000000000000000000000000000000000000000000000000000000000000000000000000000000000000000000000000000000000000000000000000000000000000000000000000000000000000000000000000000000000000000000000000000000000000000000000000000000000000000000000000000000000000000000000000000000000000000000000000000000000000000000000000000000000000000000000000000000000000000000000000000000000000000000000000000000000000000000000000000000000000000000000000000000000000000000000000000000000000000000000000000000000000000000000000000000000000000000000000000000000000000000000000000000000000000000000000000000000000000000000000000000000000000000000000000000000000000000000000000000000000000000000000000000000000000000000000000000000000000000000000000000000000000000000000000000000000000000000000000000000000000000000000000000000000000000000000000000000000000000000000000000000000000000000000000000000000000000000000000000000000000000000000000000000000000000000000000000000000000000000000000000000000000000000000000000000000000000000000000000000000000000000000000000000000000000000000000000000000000000000000000000000000000000000000000000000000000000000000000000000000000000000000000000000000000000000000000000000000000000000000000000000000000000000000000000000000000000000000000000000000000000000000000000000000000000000000000000000000000000000000000000000000000000000000000000000000000000000000000000000000000000000000000000000000000000000000000000000000000000000000000000000000000000000000000000000000000160000000000000000000000000000000000000000000000000000000000000000000000000000000000000000000000000000000000000000000000000000000000000000000000000000000000000000000000000000000000000000000000000000000000000000000000000000000000000000000000000000000000000000000000000000000000000000000000000000000000000000000000000000000000000000000000000000000000000000000000000000000000000000000000000000000000000000000000000000000000000000000000000000000000000000000000000000000000000000000056000000000000000000000000000000000000000000000000000000000000000000000000000000000000000000000000000000000000000000000000000000000000000000000000000000000000000000000000000000000000000000000000000000000000000000000000000000000000000000000000000000000000000000000000000000000000000000000000000000000000000000000000000000000000000000000000000000000000000000000000000000000000000000000000000000000000000000000000000000000000000000000000000000000000000000000000000000000000000000000000000000000000000000000000000000000000000000000000000000000000000000000000000000000000000000000000000000000000000000000000000000000000000000000000000000000000000000000000000000000000000000000000000000000000000000000000000000000000000000000000000000000000000000000000000000000000000000000000000000000000000000000000000000000000000000000000000000000000000000000000000000000000000000000000000000000000000000000000000000000000000000000000000000000000000000000000000000000000000000000000000000000000000000000000000000000000000000000000000000000000000000000000000000000000000000000000000000000000000000000000000000000000000000000000000000000000000000000000000000000000000000000000000000000000000000000000000000000000000000000000000000000000000000000000000000000000000000000000000000000000000000000000000000000000000000000000000000000000000000000000000000000000000000000000000000000000000000000000000000000000000000000000000000000000000000000000000000000000000000000000
#054320:00000026
#054321:0016
#054381:0000000000362600
#0563a1:0014
#056341:0000000000550000
#056381:00000026
#058371:0000000000000014
#0583b1:0000000000000000000000000000000000000000000000000000000000333300
#0593b1:0023000000000000
#062351:0000000000000014
#063321:00240000000000000000000000000000
#0653a1:0000000000000014
#066361:54
#0663a1:0024000000000000
#066361:00130000
#066321:0000005300000000
#066341:0023
#066370:0013
#0663b0:0000000000530000
#066390:00000023
#066361:00000013
#066321:0000000000000023
#066370:0000000000000013
#0673b0:0023000000000000
#069320:0000000000000014
#070360:54
#070320:0024000000000000
#070320:0000000014240000
#0703a1:0000000000142400
#070360:00000013
#070320:0000000000000023
#070371:0000000000000013
#0713b1:00230000000000000000000000000000
#0713c1:00120000
#071381:0000002200000000
#071320:0000001200000000
#071360:0022
#0713b0:00000013
#071370:0000000000000023
#071321:0000000000000013
#072361:23
#0723b0:13
#072370:0053000000000000
#0723a0:00240000
#072321:00142500
#072361:0000005400000000
#072390:0015
#072350:0000000000550000
#072380:00000026
#073360:0000000000000014
#0743a0:0024000000000000
#074360:0000000000000014
#075320:24
#076350:14
#076370:0055000000000000
#076320:00250000
#076371:00140000
#076341:0000005500000000
#076391:0025
#077361:0000000000000014
#078321:0024000000000000
#078361:00000000000000000000000000000014
#0793a1:0024000000000000
#079361:0000001400000000
#079321:0024
#079360:0014
#0793b0:0000000000000000000000000000000000000053330000000000000000000000
#079380:00000000000000000000002400000000
#079341:00000000000000000000001400000000
#079321:0000000000000000000000000000000000000000000000000053330000000000
#079361:0000000000000024
#0803a1:14
#080331:0056000000000000
#080381:00260000
#080320:00142600
#080370:0000005600000000
#080370:00000014
#080320:0000000000000000000000000000000000000000000000000034343434343434
#081320:24
#082360:0000000000000016
#0833a0:0024000000000000
#0843a0:00000014
#084360:0000000000000054
#0853a0:24
#086340:0000000000000016
#087320:0024000000000000
#0873a0:0014
#087370:0000000000230000
#089370:16
#089390:000000000000000000000000000000000000000000000000000000000000000000000000000000000000000000000000000000000000000000000000000000000000000000000000000000000000000000000000000000000000000000000000000000000000000000000000000000000000000000000000000000000000000000000000545500000000000000000000000000000000000000000055520000000000000000000000000000000000000000000000000000000000000000000000000000000000000000000000000000000000000000000000005255000000000000000000000000000000000000000000250000000000000000000000000000000000000000000000000000000000000000000000000000000000000000000000000000000000000000000000000000000000000000000000000000000000000000000000000000000000000000000000000000000000000000000000000000000000000000000000000000000000000000000000000000000000000000000000000000000000000000000000000000000000000000000000000000000000000000000000000000000000000000000000000000000000000000000000000000000000000000000000000000000000000000000000000000000000000000000000000000000000000000000000000000000000000000000000000000000000000000000000000000000000000000000000000000000000000000000000000000000000000000000000000000000000000000000000000000000000000000000000000000000000000000000000000000000000000000000000000000000000000000000000000000000000000000000000000000000000000000000000000000000000000000000000000000000000000000000000000000000000000000000000000000000000000000000000000000000000000000000000000000000000000000000000000000000000000000000000000000000000000000000000000000000000000000000000000000000000000000000000000000000000000000000000000000000000000000000000000000000000000000000000000000000000000000000000000000000000000000000000000000000000000000000000000000000000000000000000000000000000000000000000000000000000000000000000000000000000000000000000000000000000000000000000000000000000000000000000000000000000000000000000000000000000000000000000000000000000000000000000000000000000000000000000000000000000000000000000000000000000000000000000000000000000000000000000000000000000000000000000000000000000000000000000000000000000000000000000000000000000000000000000000000000000000000000000000000000000000000000000000000000000000000000000000000000000000000000000000000000000000000000000000000000000000000000000000000000000000000000000000000000000000000000000000000000000000000000000000000000000000000000000000000000000000000000000000000000000000000000000000000000000000000000000000000000000000000000000000000000000000000000000000000000000000000000000000000000000000000000000000000000000000000000000000000000000000000000000000000000000000000000000000000000000000000000000000000000000000000000000000000000000000000000000000000000000000000000000000000000000000000000000000000000000000000000000000000000000000000000000000000000000000000000000000000000000000000000000000000000000000000000000000000000000000000000000000000000000000000000000000000000000000000000000000000000000000000000000000000000000000000000000000000000000000000000000000000000000000000000000000000000000000000000000000000000000000000000000000000000000000000000000000000000000000000000000000000000000000000000000000000000000000000000000000000000000000000000000000000000000000000000000000000000000000000000000000000000000000000000000000000000000000000000000000000000000000000000000000000000000000000000000000000000000000000000000000000000000000000000000000000000000000000000000000000000000000000000000000000000000000000000000000000000000000000000000000000000000000000000000000000000000000000000000000000000000000000000000000000000000000000000000000000000000000000000000000000000000000000000000000000000000000000000000000000000000000000000000000000000000000000000000000000000000000000000000000000000000000000000000000000000000000000000000000000000000000000000000000000000000000000000000000000000000000000000000000000000000000000000000000000000000000000000000000000000000000000000000
#089341:120000000000000000000000000000000000520000000000000000000000000000000000000000000000000000000000000000000000000000000000000000000000000000000000000000000000000000000000000052000000000000000000000000000000000000000000000000520000000000000000000000000000000000000000520000000000000000000000000000000000000000000000520000000000000000000000000000000000000000000000000000000000000000000000000000000000000000000000000000000000000000000000000000000000000000520000000000000000000000000000220000000000000000000000000000000000000000000000000000000000000000000000000000000000000000000000000000000000000000000000000000000000000000000000000000000000000000000000000000000000000000000000000000000000000000000000000000000000000000000000000000000000000000000000000000000000000000000000000000000000000000000000000000000000000000000000000000000000000000000000000000000000000000000000000000000000000000000000000000000000000000000000000000000000000000000000000000000000000000000000000000000000000000000000000000000000000000000000000000000000000000000000000000000000000000000000000000000000000000000000000000000000000000000000000000000000000000000000000000000000000000000000000000000000000000000000000000000000000000000000000000000000000000000000000000000000000000000000000000000000000000000000000000000000000000000000000000000000000000000000000000000000000000000000000000000000000000000000000000000000000000000000000000000000000000000000000000000000000000000000000000000000000000000000000000000000000000000000000000000000000000000000000000000000000000000000000000000000000000000000000000000000000000000000000000000000000000000000000000000000000000000000000000000000000000000000000000000000000000000000000000000000000000000000000000000000000000000000000000000000000000000000000000000000000000000000000000000000000000000000000000000000000000000000000000000000000000000000000000000000000000000000000000000000000000000000000000000000000000000000000000000000000000000000000000000000000000000000000000000000000000000000000000000000000000000000000000000000000000000000000000000000000000000000000000000000000000000000000000000000000000000000000000000000000000000000000000000000000000000000000000000000000000000000000000000000000000000000000000000000000000000000000000000000000000000000000000000000000000000000000000000000000000000000000000000000000000000000000000000000000000000000000000000000000000000000000000000000000000000000000000000000000000000000000000000000000000000000000000000000000000000000000000000000000000000000000000000000000000000000000000000000000000000000000000000000000000000000000000000000000000000000000000000000000000000000000000000000000000000000000000000000000000000000000000000000000000000000000000000000000000000000000000000000000000000000000000000000000000000000000000000000000000000000000000000000000000000000000000000000000000000000000000000000000000000000000000000000000000000000000000000000000000000000000000000000000000000000000000000000000000000000000000000000000000000000000000000000000000000000000000000000000000000000000000000000000000000000000000000000000000000000000000000000000000000000000000000000000000000000000000000000000000000000000000000000000000000000000000000000000000000000000000000000000000000000000000000000000000000000000000000000000000000000000000000000000000000000000000000000000000000000000000000000000000000000000000000000000000000000000000000000000000000000000000000000000000000000000000000000000000000000000000000000000000000000000000000000000000000000000000000000000000000000000000000000000000000000000000000000000000000000000000000000000000000000000000000000000000000000000000000000000000000000000000000000000000000000000000000000000000000000000000000000000000000000000000000000000000000000000000000000000000000000000000000000000000000000000000000000000000000000000000000000000000000000000000000000000000000000
#089321:000000000000000000000000000000000000005600000000000000000000000000000000000000000000000000000000000000000000000000000000000000000000000000000000000000000000000000000000000000560000000000000000000000000000000000000000000056000000000000000000000000000000000000000000005600000000000000000000000000000000000000000056000000000000000000000000000000000000000000000000000000000000000000000000000000000000000000005600000000000000000000000000000000000000000056000000000000000000000000000000000000000000000000000000000000000000000000000000000000000000000000000000000000000000000000000000000000000000000000000000000000000000000000000000000000000000000000000000000000000000000000000000000000000000000000000000000000000000000000000000000000000000000000000000000000000000000000000000000000000000000000000000000000000000000000000000000000000000000000000000000000000000000000000000000000000000000000000000000000000000000000000000000000000000000000000000000000000000000000000000000000000000000000000000000000000000000000000000000000000000000000000000000000000000000000000000000000000000000000000000000000000000000000000000000000000000000000000000000000000000000000000000000000000000000000000000000000000000000000000000000000000000000000000000000000000000000000000000000000000000000000000000000000000000000000000000000000000000000000000000000000000000000000000000000000000000000000000000000000000000000000000000000000000000000000000000000000000000000000000000000000000000000000000000000000000000000000000000000000000000000000000000000000000000000000000000000000000000000000000000000000000000000000000000000000000000000000000000000000000000000000000000000000000000000000000000000000000000000000000000000000000000000000000000000000000000000000000000000000000000000000000000000000000000000000000000000000000000000000000000000000000000000000000000000000000000000000000000000000000000000000000000000000000000000000000000000000000000000000000000000000000000000000000000000000000000000000000000000000000000000000000000000000000000000000000000000000000000000000000000000000000000000000000000000000000000000000000000000000000000000000000000000000000000000000000000000000000000000000000000000000000000000000000000000000000000000000000000000000000000000000000000000000000000000000000000000000000000000000000000000000000000000000000000000000000000000000000000000000000000000000000000000000000000000000000000000000000000000000000000000000000000000000000000000000000000000000000000000000000000000000000000000000000000000000000000000000000000000000000000000000000000000000000000000000000000000000000000000000000000000000000000000000000000000000000000000000000000000000000000000000000000000000000000000000000000000000000000000000000000000000000000000000000000000000000000000000000000000000000000000000000000000000000000000000000000000000000000000000000000000000000000000000000000000000000000000000000000000000000000000000000000000000000000000000000000000000000000000000000000000000000000000000000000000000000000000000000000000000000000000000000000000000000000000000000000000000000000000000000000000000000000000000000000000000000000000000000000000000000000000000000000000000000000000000000000000000000000000000000000000000000000000000000000000000000000000000000000000000000000000000000000000000000000000000000000000000000000000000000000000000000000000000000000000000000000000000000000000000000000000000000000000000000000000000000000000000000000000000000000000000000000000000000000000000000000000000000000000000000000000000000000000000000000000000000000000000000000000000000000000000000000000000000000000000000000000000000000000000000000000000000000000000000000000000000000000000000000000000000000000000000000000000000000000000000000000000000000000000000000000000000000000000000000000000000000000000000000000000000000000000000000000000000000000000000000000000000000000000000000
#089331:00000000000000000000000000000000000000000000000000000000000000000000000000000000000000000000000000000000000000000000000000000000000000540000000000000000000000000000000000000000000000000000000000000000000000000000000000000000000000000000000000000000000000000000000000000000000000000000000000000000000000000000000000000000000000000000000000000000000000000000000000000000000000000000000000000000000000000000000000000000000000000000000000000000000000000000000000000000000000000000000000000000000000000000000000000000000000000000000000000000000000000000000000000000000000000000000000000000000000000000000000000000000000000000000000000000000000000000000000000000000000000000000000000000000000000000000000000000000000000000000000000000000000000000000000000000000000000000000000000000000000000000000000000000000000000000000000000000000000000000000000000000000000000000000000000000000000000000000000000000000000000000000000000000000000000000000000000000000000000000000000000000000000000000000000000000000000000000000000000000000000000000000000000000000000000000000000000000000000000000000000000000000000000000000000000000000000000000000000000000000000000000000000000000000000000000000000000000000000000000000000000000000000000000000000000000000000000000000000000000000000000000000000000000
#089321:00130000
#089361:000000000000000000000000000000000000000000000000000000000000000000000000000000000000000000000000000000000000000000000000000000000000000000000000000000000000000000000000000000000000000000000000000000000000000000000000000000000000000000000000000000000000000000000000000000000000000000000000000000000000000000000000000000000000000000000000000000000000000000000000000000000000000000000000000000000000000000000000000000000000000000000000000000000000000000000000000000000000000000000000000000000000000000000000000000000000000000000000000000000000000000000000000000000000000000000000000000000000000000000000000000000000000000000000000000000000000000000000000000000000000000000000000000000000000000000000000000000000000000000000000000000000000000000000000000000000000000000000000000000000000000000000000000000000000000000000000000000000000000000000000000000000000000000000000000000000000000000000000000000000000000000000000000000000000000000000000000000000000000000000000000000000000000000000000000000000000000000000000000000000000000000000000000000000000000000000000000000000000000000000000000000000000000000000000000000000000000000000000000000000000000000000000000000000000000000000000000000000000000000000000000000000000000000000000000000000000000000000000000000000000000000000000000000000000000000000000000000000000000000000000000000000000000000000000000000000000000000000000000000000000000000000000000000000000000000000000000000000000000000054220000000000000000000000000000000000000000000000000000000000000000000000000000000000000000000000000000000000000000000000000000000000000000000000000000000000000000000000000000000000000000000000000000000000000000000000000000000000000000000000000000000000000000000000000000000000000000000000000000000000000000000000000000000000000000000000000000000000000000000000000000000000000000000000000000000000000000000000000000000000000000000000000000000000000000000000000000000000000000000000000000000000000000000000000000000000000000000000000000000000000000000000000000000000000000000000000000000000000000000000000000000000000000000000000000000000000000000000000000000000000000000000000000000000000000000000000000000000000000000000000000000000000000000000000000000000000000000000000000000000000000000000000000000000000000000000000000000000000000000000000000000000000000000000000000000000000000000000000000000000000000000000000000000000000000000000000000000000000000000000000000000000000000000000000000000000000000000000000000000000000000000000000000000000000000000000000000000000000000000000000000000000000000000000000000000000000000000000000000000000000000000000000000000000000000000000000000000000000000000000000000000000000000000000000000000000000000000000000000000000000000000000000000000000000000000000000000000000000000000000000000000000000000000000000000000000000000000000000000000000000000000000000000000000000000000000000000000000000000000000000000000000000000000000000000000000000000000000000000000000000000000000000000000000000000000000000000000000000000000000000000000000000000000000000000000000000000000000000000000000000000000000000000000000000000000000000000000000000000000000000000000000000000000000000000000000000000000000000000000000000000000000000000000000000000000000000000000000000000000000000000000000000000000000000000000000000000000000000000000000000000000000000000000000000000000000000000000000000000000000000000000000000000000000000000000000000000000000000000000000000000000000000000000000000000000000000000000000000000000000000000000000000000000000000000000000000000000000000000000000000000000000000000000000000000000000000000000000000000000000000000000000000000000000000000000000000000000000000000000000000000000000000000000000000000000000000000000000000000000000000000000000000000000000000000000000000000000000000000000000000000000000000000000000000000000000000000000000000000000000
#0893b0:00130000
#089360:000000000000000000000000000000000000000000000000000000000000000000000000000000000000000000000000000000000000000000000000000000000000000000000000000000000000000000000000000000000000000000000000000000000000000000000000000000000000000000000000000000000000000000000000000000000000000000000000000000000000000000000000000000000000000000000000000000000000000000000000000000000000000000000000000000000000000000000000000000000000000000000000000000000000000000000000000000000000000000000000000000000000000000000000000000000000000000000000000000000000000000000000000000000000000000000000000000000000000000000000000000000000000000000000000000000000000000000000000000000000000000000000000000000000000000000000000000000000000000000054000000000000000000000000000000000000000000000000000000000000000000000000000000000000000000000000000000000000000000000000000000000000000000000000000000000000000000000000000000000000000000000000000000000000000000000000000000000000000000000000000000000000000000000000000000000000000000000000000000000000000000000000000000000000000000000000000000000000000000000000000000000000000000000000000000000000000000000000000000000000000000000000000000000000000000000000000000000000000000000000000000000000000000000000000000000000000000000000000000000000000000000000000000000000000000000000000000000000000000000000000000000000000000000000000000000000000000000000000000000000000000000000000000000000000000000000000000000000000000000000000000000000000000000000000000000000000000000000000000000000000000000000000000000000000000000000000000000000000000000000000000000000000000000000000000000000000000000000000000000000000000000000000000000000000000000000000000000000000000000000000000000000000000000000000000000000000000000000000000000000000000000000000000000000000000000000000000000000000000000000000000000000000000000000000000000000000000000000000000000000000000000000000000000000000000000000000000000000000000000000
#089380:0000002200000000
#089380:000000000000000000000000000000000000000000000000000000000000000000000000000000000000000000000000000000000000000000000000000000000000000000000000000000000000000000000000000000000000000000000000000000000000000000000000000000000000000000000000000000000000000000000000000000000000000000000000000000000000000000000000000000000000000000000000000000000000000000000000000000000000000000000000000000000000000000000000000000000000000000000000000000000000000000000000000000000000000000000000000000000000000000000000000000000000000000000000000000000000000000000000000000000000000000000000000000000000000000000000000000000000000000000000000000000000000000000000000000000000000000000000000000000000000000000000000000000000000000000000000000000000000000000000000000000000000000000000000000000000000000000000000000000000000000000000000000000000000000000000000000000000000000000000000000000000000000000000000000000000000000000000000000000000000000000000000000000000000000000000000000000000000000000000000000000000000000000000000000000000000000000000000000000000000000000000000000000000000000000000000000000000000000000000000000000000000000000000000000000000000000000000000000000000000000000000000000000000000000000000000000000000000000000000000000000000000000000000000000000000000000000000000000000000000000000000000000000000000000000000000000000000000000000000000000000000000000000000000000000000000000000000000000000000000000000000000000000000000000000000000000000000000000000000000000000000000000000000000000000000000000000000000000000000000000000000000000000000000000000000000000000000000000000000000000000000000000000000000000000000000000000000000000000000000000000000000000000000000000000000000000000000000000000000000000000000000000000000000000000000000000000000000000000000000000000000000000000000000000000000000000000000000000000000000000000000000000000000000000000000000000000000000000000000000000000000000000000000000000000000160000000000000000000000000000000000000000000000000000000000000000000000000000000000005600000000000000000000000000000000000000000000000000000000000000000000000000000000000000000000000000000000000000000000000000000000000000000000000000000000000000000000000000000000000000000000000000000000000000000000000000000000000000000000000000000000000000000000000000000000000056530000000000000000000000000000000000000000000000000000000000000000000000560000000000000000000000000000000000000000260000000000000000000000000000000000000000000000000000000000000000000000000000000000000000000000000000000000000000000000000000000000000000000000000000000000000000000000000000000000000000000000000000000000000000000000000000000000000000000000000000000000000000000000000000000000000000000000000000000000000000000000000000000000000000000000000000000000000000000000000000000000000000000000000000000000000000000000000000000000000000000000000000000000000000000000000000000000000000000000000000000000000000000000000000000000000000000000000000000000000000000000000000000000000000000000000000000000000000000000000000000000000000000000000000000000000000000000000000000000000000000000000000000000000000000000000000000000000000000000000000000000000000000000000000000000000000000000000000000000000000000000000000000000000000000000000000000000000000000000000000000000000000000000000000000000000000000000000000000000000000000000000000000000000000000000000000000000000000000000000000000000000000000000000000000000000000000000000000000000000000000000000000000000000000000000000000000000000000000000000000000000000000000000000000000000000000000000000000000000000000000000000000000000000000000000000000000000000000000000000000000000000000000000000000000000000000000000000000000000000000000000000000000000000000000000000000000000000000000000000000000000000000000000000000000000000000000000000000000000000000000000000000000000000000000000000000000000000000000000
#0893a0:000000000000000000000000000000000000000000000000000000000000000000000000000000000000000000000000000000000000000000000000000000000000000000000000000000000000000000000000000000000000000000000000000000000000000000000000000000000000000000000000000000000000000000000000000000000000000000000000000000000000000000000000000000000000000000000000000000000000000000000000000000000000000000000000000000000000000000000000000000000000000000000000000000000000000000000000000000000000000000000000000000000000000000000000000000000000000000000000000000000000000000000000000000000000000000000000000000000000000000000000000000000000000000000000000000000000000000000000000000000000000000000000000000000000000000000000000000000000000000000000000000000000000000000000000000000000000000000000000000000000000000000000000000000000000000000000000000000000000000000000000000000000000000000000000000000000000000000000000000000000000000000000000000000000000000000000000000000000000000000000000000000000000000000000000000000000000000520000000000000000000000000000000000000000000000000000000000000000000000000000000000000000000000000000000000000000000000000000000000000000000000000000000000000000000000000000005300000000000000000000000000000000000000000000000000000000000000000000000000000000000000000000000000000000000000000000000000000000000000000000000000000000000000000000000000000000000000000000000000000000000000000000000000000000000000000000000000000000000000000000000000000000000000000000000000000000000000000000000000000000000000000000000000000000000000000000000000000000000000000000000000000000000000000000000000000000000000000000000000000000000000000000000000000000000000000000000000000000000000000000000000000000000000000000000000000000000000000000000000000000000000000000000000000000000000000000000000000000000000000000000000000000000000000000000000000000000000000000000000000000000000000000000000000000000000000000000000000000000000000000
#089321:000000000000000000000000000000000000000000000000000000000000000000000000000000000000000000000000000000000000000000000000000000000000000000000000000000000000000000000000000000000000000000000000000000000000000000000000000000000000000000000000000000000000000000000000000000000000000000000000000000000000000000000000000000000000000000000000000000000000000000000000000000000000000000000000000000000000000000000000000000000000000000000000000000000000000000000000000000000000000000000000000000000000000000000000000000000000000000000000000000000000000000000000000000000000000000000000000000000000000000000000000000000000000000000000000000000000000000000000000000000000000000000000000000000000000000000000000000000000000000000000000000000000000000000000000000000000000000000000000000000000000000000000000000000000000000000000000000000000000000000000000000000000000000000000000000000000000000000000000000000000000000000000000000000000000000000000000000000000000000000000000000000000000000000000000000000000000000000000000000000000000000000000000000000000000000000000000000000000000000000000000000000000000000000000000000000000000000000000000000000000000000000000000000000000000000000000000000000000000000000000000000000000000000000000000000000000000000000000000000000000000000000000000000000000000000000000000000000000000000000000000000000000000000000000000000000000000000000000000000000000000000000000000000000000000000000000000000000000000000000000000000000000000000000000000000000000000000000000000000000000000000000000000000000000000000000000000000000000000000000000000000000000000000000000000000000000000000000000000000000000000000000000000000000000000000000000000000000000000000000000000000000000000000000000000000000000000000000000000000000000000000000000000000000000000000000000000000000000000000000000000000000000000000000000000000000000000000000000000000000000000000000000000000000000000000000000000000000000000000000000160000000000000000000000000000000000000000000000000000000000000000000000000000000000000000000000000000000000000000000000000000000000000000005600000000000000000000000000000000000000000000000000000000560000000000000000000000000000000000000000005600000000000000000000000000000000000000000000000000000000000000000000560000000000000000000000000000000000000000000000000000560000000000000000000000000000000000000000000000000000000000000000000000000000000000560000000000000000000000000000000000000000000000000000000000000000000000000000000000000000000000000000000000000000000000000000000000000000000000000000000000000000000000000000000000000000000000000000000000000000000000000000000000000000000000000000000000000000000000000000000000000000000000000000000000000000000000000000000000000000000000000000000000000000000000000000000000000000000000000000000000000000000000000000000000000000000000000000000000000000000000000000000000000000000000000000000000000000000000000000000000000000000000000000000000000000000000000000000000000000000000000000000000000000000000000000000000000000000000000000000000000000000000000000000000000000000000000000000000000000000000000000000000000000000000000000000000000000000000000000000000000000000000000000000000000000000000000000000000000000000000000000000000000000000000000000000000000000000000000000000000000000000000000000000000000000000000000000000000000000000000000000000000000000000000000000000000000000000000000000000000000000000000000000000000000000000000000000000000000000000000000000000000000000000000000000000000000000000000000000000000000000000000000000000000000000000000000000000000000000000000000000000000000000000000000000000000000000000000000000000000000000000000000000000000000000000000000000000000000000000000000000000000000000000000000000000000000000000000000000000000000000000000000000000000000000000000000000000000000000000000000000000000000000000000000000000000000000000000000000
#089341:000000000000000000000000000000000000000000000000000000000000000000000000000000000000000000000000000000000000000000000000000000000000000000000000000000000000000000000000000000000000000000000000000000000000000000000000000000000000000000000000000000000000000000000000000000000000000000000000000000000000000000000000000000000000000000000000000000000000000000000000000000000000000000000000000000000000000000000000000000000000000000000000000000000000000000000000000000000000000000000000000000000000000000000000000000000000000000000000000000000000000000000000000000000000000000000000000000000000000000000000000000000000000000000000000000000000000000000000000000000000000000000000000000000000000000000000000000000000000000000000000000000000000000000000000000000000000000000000000000000000000000000000000000000000000000000000000000000000000000000000000000000000000000000000000000000000000000000000000000000000000000000000000000000000000000000000000000000000000000000000000000000000000000000000000000000000000000000000000000000000000000000000000000000000000000000000000000000000000000000000000000000000000000000000000000000000000000000000000000000000000000000000000000000000000000000000000000000000000000000000000000000000000000000000000000000000000000000000000000000000000000000000000000000000000000000000000000000000000000000000000000000000000000000000000000000000000000000000000000000000000000000000000000000000000000000000000000000000000000000000000000000000000000000000000000000000000000000000000000000000000000000000000000000000000000000000000000000000000000000000000000000000000000000000000000000000000000000000000000000000000000000000000000000000000000000000000000000000000000000000000000000000000000000000000000000000000000000000000000000000000000000000000000000000000000000000000000000000000000000000000000000000000000000000000000000000000000000000000000000000000000000000000000000000000000000000000000000000000000000000000000000000000000000000000000000000000000000000000000000000000000000000000000000000000000000000000000000000000000000000000000000000000000520000000000000000000000000000000000000000000000000000000000005200000000000000000000000000000000000000520000000000000000000000000000000000000000000000000000000000000000000052000000000000000000000000000000000000000000000000000000005200000000000000000052000000000000000000000000000000000000000000000000000000000000005200000000000000000000000000220000000000000000000000000000000000000000000000000000000000000000000000000000000000000000000000000000000000000000000000000000000000000000000000000000000000000000000000000000000000000000000000000000000000000000000000000000000000000000000000000000000000000000000000000000000000000000000000000000000000000000000000000000000000000000000000000000000000000000000000000000000000000000000000000000000000000000000000000000000000000000000000000000000000000000000000000000000000000000000000000000000000000000000000000000000000000000000000000000000000000000000000000000000000000000000000000000000000000000000000000000000000000000000000000000000000000000000000000000000000000000000000000000000000000000000000000000000000000000000000000000000000000000000000000000000000000000000000000000000000000000000000000000000000000000000000000000000000000000000000000000000000000000000000000000000000000000000000000000000000000000000000000000000000000000000000000000000000000000000000000000000000000000000000000000000000000000000000000000000000000000000000000000000000000000000000000000000000000000000000000000000000000000000000000000000000000000000000000000000000000000000000000000000000000000000000000000000000000000000000000000000000000000000000000000000000000000000000000000000000000000000000000000000000000000000000000000000000000000000000000000000000000000000000000000000000000000000000000000000000000000000000000000000000000000000000000000000000000000000000
#089331:0000000000000000000000000000000000000000000000000000000000000000000000000000000000000000000000000000000000000000000000000000000000000000000000000000000000540000000000000000000000000000000000000000000000000000000000000000000000000000000000000000000000000000
#089361:000000000000000000000000000000000000000000000000000000000000000000000000185757575757570000000000
#089371:000000000000000000000000000000000000000000000000000000000000000000000000000000000000000000000000000000000000000000000000000000000000000000000000005700570057005700570057000056005600560056005600
#089381:000000000000000000000000000000000000000000000000000000000000000000000000000000000000000000000000000000000000000000000000000000000000000000000000000000000000000000000000005600560056005600560056
#090371:56
#090391:005500550055005500550055000054005400540054005400540000000000000000000000000000000000000000000000000000000000000000000000000000000000000000000000000000000000000000000000000000000000000000000000
#090381:005555555555550000000000000000000000000000000000000000000000000000000000000000000000000000000000
#0903a1:000000000000000000000000005400540054005400540054000053005300530053005300530000000000000000000000000000000000000000000000000000000000000000000000000000000000000000000000000000000000000000000000
#0903b1:000000000000000000000000000000000000000000000000005300530053005300530053000052005200520052005200530000000000000000000000000000000000000000000000000000000000000000000000000000000000000000000000
#0903c1:000000000000000000000000000000000000000000000000000000000000000000000000005200520052005200520052000000000000000000000000000000000000000000000000000000000000000000000000000000000000000000000000
#0923c1:22
