This file was generated by Ched 2.7.0.0.
#TITLE ""
#ARTIST ""
#DESIGNER ""
#DIFFICULTY 0
#PLAYLEVEL
#SONGID ""
#WAVE ""
#WAVEOFFSET 0
#JACKET ""
#REQUEST "ticks_per_beat 480"
#00002: 4
#BPM01: 144
#00008: 01
#TIL00: ""
#VOLUME: ""
#HISPEED 00
#MEASUREHS 00
#0011a:14
#00114:0014
#00218:14
#00212:0014
#0031a:14
#00314:0014
#00418:14
#00412:0014
#0051a:1414
#00614:14
#00618:0014
#00712:1414
#00912:0014
#00910:41
#01018:1414
#01014:00140000
#01112:14
#0111a:0014
#01214:1414
#01218:00140000
#0131a:1414
#01412:14
#01416:00140000
#0141a:0014
#01512:1414
#0161a:14
#01616:00140000
#01612:0014
#0171a:14
#01714:0014
#01912:14
#01918:0014
#02118:14
#02114:0014
#02314:14
#02318:0014
#03114:0014
#0321a:1414
#03212:00140024
#03314:00140000
#03318:0014
#03312:00000014
#0331a:24
#03310:41
#0341a:14
#03414:00140000
#03418:0014
#03412:00000014
#03612:14
#03616:00140000
#03718:00140000
#03714:0014
#0371a:00000014
#03712:24
#03812:14
#03818:00140000
#03814:0014
#0381a:00000014
#04112:2414
#04118:00140014
#04110:41
#0431a:1414
#04314:00140014
#04514:1414
#04518:00140014
#04718:1414
#04714:00140014
#04912:14343434
#0511a:14343434
#05014:14
#05012:00343400
#05218:14
#0521a:00343400
#05314:14
#05312:00341434
#05518:14
#0551a:00341434
#06514:1414
#06518:00140000
#0651f:11
#06618:1414
#06614:00140000
#06914:14141400
#07018:14141400
#07412:14
#07414:00343400
#07410:41
#0761a:14
#07618:00343400
#07814:14
#07812:00343400
#08018:14
#0801a:00343400
#08314:14
#08312:00343400
#08418:14
#0841a:00343400
#08712:14
#08714:00343400
#05712:24240000
#05718:00002424
#05814:24240000
#0581a:00002424
#0611a:24240000
#06114:00002424
#06218:24240000
#06212:00002424
#07312:24
#07318:00240000
#07314:0024
#0731a:00000024
#0731f:21
#0751a:24
#07514:00240000
#07518:0024
#07512:00000024
#07712:24
#07718:00240000
#07714:0024
#0771a:00000024
#0791a:24
#07914:00240000
#07918:0024
#07912:00000024
#08114:24
#08118:00240000
#08112:0024
#0811a:00000024
#08214:24
#08218:00240000
#08212:0024
#0821a:00000024
#08512:24
#0851a:00240000
#08514:0024
#08518:00000024
#08510:41
#08612:24
#0861a:00240000
#08614:0024
#08618:00000024
#08912:2626
#08918:00260026
#08818:2424
#08814:00240000
#00814:00240000
#0081a:0024
#00818:24
#04018:2424
#04014:00240000
#0281a:00343434
#07219:00343400
#02510:41
#02552:14
#02658:14
#02754:14
#03054:14
#03158:14
#03154:0014
#0335a:14
#0365a:00000014
#05052:00000014
#05054:54
#0525a:00000014
#05258:54
#04952:54
#0515a:54
#05354:64
#05352:0024
#05558:54
#0555a:0024
#05658:00000014
#05454:00000014
#07258:00000016
#07452:54
#0765a:64
#07658:00000014
#07854:64
#08058:54
#0805a:00000014
#0825a:00000014
#08354:54
#08458:54
#08752:54
#08658:00000014
#0095a:14
#02958:14
#0083a0:0014
#0093a0:24
#018380:14
#0183a0:0024
#020340:14
#020320:0024
#0223a0:14
#022380:0024
#024320:14000034
#024340:00343400
#025320:24
#025380:00001434
#026380:24
#026340:00001434
#027340:24
#0273a0:00001434
#0283a0:34343434
#029380:24
#029340:00001434
#030340:24
#030380:00001434
#031380:24
#0353a0:1434
#035380:00340024
#0363a0:00001424
#039320:1434
#039340:00340024
#042320:14000024
#042340:00343400
#0443a0:14000024
#044380:00343400
#046340:14000024
#046320:00343400
#048380:14000024
#0483a0:00343400
#049320:14343434
#050340:34
#050320:00343424
#0513a0:14343434
#052380:34
#0523a0:00343424
#053340:14
#053320:00343434
#054340:34343424
#055380:14
#0553a0:00343434
#056380:34343424
#059320:14
#059330:00340000
#059340:0034
#059350:00000034
#060350:34
#060340:00340000
#060330:0034
#060320:00000024
#0633a0:14
#063390:00340000
#063380:0034
#063370:00000034
#064370:34
#064380:00340000
#064390:0034
#0643a0:00000024
#067320:14340000
#067340:00003424
#0683a0:14340000
#068380:00003424
#071340:14340000
#071320:00003424
#072390:14343400
#072380:00000026
#074320:14
#074340:00343424
#0763a0:14
#076380:00343424
#078340:14
#078320:00343424
#080380:14
#0803a0:00343424
#083340:14
#083320:00343424
#084380:14
#0843a0:00343424
#087320:14
#087340:00343424
#089380:00000016
#0923b0:23
