This file was generated by Ched 2.7.0.0.
#TITLE ""
#ARTIST ""
#DESIGNER ""
#DIFFICULTY 0
#PLAYLEVEL
#SONGID ""
#WAVE ""
#WAVEOFFSET 0
#JACKET ""
#REQUEST "ticks_per_beat 480"
#00002: 4
#BPM01: 134
#00008: 01
#TIL00: ""
#VOLUME: ""
#HISPEED 00
#MEASUREHS 00
#0051a:14
#00612:14
#00818:14
#01018:14
#00914:14
#00910:41
#01114:14
#0121a:14
#01312:14
#0141a:14
#01512:14
#01510:41
#0041a:14
#00712:14
#02512:1616
#02510:41
#02418:2616
#0241f:21
#02618:16
#02612:0016
#02918:1616
#02812:1616
#03012:16
#03018:0016
#03312:0016
#03318:16
#03212:0016
#03218:26
#03210:41
#03412:0016
#03418:16
#03718:0016
#03712:16
#03618:0016
#03612:26
#03818:0016
#03812:16
#03810:41
#04312:2616
#04418:1616
#04512:16
#04518:0016
#04612:16
#0161f:11
#00319:24
#00313:24
#00310:41
#016380:14
#017380:24
#018340:14
#019340:24
#0203a0:14
#0213a0:24
#022320:14
#023320:24
#027380:1626
#031320:1626
#035380:1626
#039320:1626
#040380:14
#041380:24
