This file was generated by Ched 2.7.0.0.
#TITLE ""
#ARTIST ""
#DESIGNER ""
#DIFFICULTY 0
#PLAYLEVEL
#SONGID ""
#WAVE ""
#WAVEOFFSET 0
#JACKET ""
#REQUEST "ticks_per_beat 480"
#00002: 4
#BPM01: 134
#00008: 01
#TIL00: ""
#VOLUME: ""
#HISPEED 00
#MEASUREHS 00
#0161f:11
#0161b:13131313
#01615:13
#01616:0000001300000013
#01612:0013000000130000
#01614:00131300
#0441a:00240000001400001400000000000000
#04416:00000000000000140000000000000000
#04412:24000000001400000000001400001300
#0441b:00000000000000000000000000130013
#04414:0024000000000000
#04418:00000024000000000000000000000000
#04312:00240000001400001400000000000000
#0431a:24000000001400000000000014000000
#04316:00000000000000140000140000000000
#04318:00002400000000000000000000000013
#04315:0000000000000013
#04314:00000024000000000000000000000000
#0451a:00000024000000140000000000000000
#04516:0014
#04512:00000024001400000000000000000000
#04518:00240000000000000000000024000000
#04514:2400000000000024
#03312:0000001300130000
#03313:00130000
#03314:0013000000000000
#03315:13000000000000000000000000130000
#03318:0000001300001313
#0331b:1300000000130000
#03319:00130000
#0331a:0013000000000000
#02615:0013000000130013
#0261b:13132323
#02618:0000001300000013
#02612:23231300
#0181b:0000000000131300
#01818:1300000000000013
#01815:00000000000000000013000013000000
#01812:0000000000000013
#0281b:0000002300001300
#02812:23000000000000000000000023000016000013000016000000000000000000000000000000000000130000000000000000000000000000000000000000000000
#02817:0013
#02818:2600000000000013
#02815:00000013
#03612:13000000001300000000000013000000
#0361b:23000013000000001300000013000000
#03618:0000001300000000
#03615:0013000000130013
#01315:00000000000013000000000000130000
#0131b:0000000013130000
#01312:0013
#01314:00000000000000000000000000000013
#01319:0000000000000013
#0131a:00000013
#01316:00000000000000000000001300000000
#03819:0000001300001300
#03817:0000000013000013
#03812:2300000023000013
#03816:0000130000130000
#03814:0013000000001300
#0381b:0000230000130000
#03810:41
#03019:2300000000130000
#03013:00230013
#03012:0000000013000013
#0301a:00130013
#03014:1300000000130000
#03017:0000001300000000
#03016:0013000000000000
#0301b:0023
#0311b:00000013000000001300130000000000
#03112:0013000000130000
#03115:00000000000000000000000000130000
#03118:0000000000001313
#03518:00002300000000000000000000130000
#03515:00000023000000000000130000001300
#0351b:0000230013130000
#03516:0000001300000000
#03512:00230013
#03918:00001300000000000000000000130000
#03912:0000000013130000
#03915:00000013000000000000000013001300
#0391b:0000130000130000
#03917:0000001300000000
#03916:13
#03412:0000231300000023
#0341b:2313000023000023
#03415:13001300000000001300001300000000
#03418:0000131300130000
#0321b:13000000001300000000000013000000
#03218:0013000000130013
#03212:23000013000000001300000013000000
#03215:0000001300000000
#03210:41
#02712:0000000000130000
#02718:00000000130000000000000000130000
#02715:0013130000001300
#0271b:1313
#02519:00130000
#02517:0000001300220000
#02514:00130000
#02512:0000001300000000
#0251b:0013000000000000
#02516:24
#02510:41
#02412:13000000001300000000130000000000
#0241b:23000013000000001300000000001300
#02419:00000013
#02414:00000013
#02417:0000001300000000
#0241f:21
#02318:13000000000000130000000000000000
#02315:0013001300000013
#02312:00230000
#0231b:00230000
#02018:0000001300000013
#02012:13131313
#0201b:13
#0201a:0013000000000000
#02019:00130000
#00916:0000001300000013
#00912:00130013
#00917:0013000000130000
#0091b:1313
#00910:41
#00712:13000000000000130000000000000000
#00715:00000013000000000000000000000000
#00718:0013230000000000
#00714:00000000000000000013000000000000
#0071b:23000000000000000000002300000000
#00719:00000000000000000023000000000000
#00717:00000000000000230000000000000000
#00218:0012000000120012
#00216:1200001200001200
#00212:00000000000000000012000000000000
#0021a:00120000
#00118:0000000000000012
#00116:0000001200001200
#00114:1200000000120000
#0011a:00000012000000000000000000000000
#0211b:1313
#02118:0000001300131313
#02115:23000000000000000000001300130013
#02119:00130000
#0211a:0013000000000000
#02112:0000002313000000
#02113:00230000
#02114:0023000000000000
#02218:23000000001300000013000000000000
#02215:0013000013130000
#02212:0000002300000000
#0221b:00000023000000000000000000000000
#01915:26000000000000000000001300000013
#01918:00000000000000000026000013001300
#01912:1313000000000000
#01913:00000000001300000000000000000000
#01914:0013
#01916:00000026000000000000000000000000
#01917:0000002600000000
#0171b:13131313
#01716:0000000000000013
#01714:0013000000001300
#01712:0000001300130000
#01713:00130000
#01715:13
#01512:1323
#01515:00000023001300000000000000000000
#01518:00001300000023000000000000000013
#0151b:2323
#01510:41
#0141b:0000000013000013
#01412:0013
#01418:00000000000013000000001300000000
#01415:0000000000130000
#01218:00000000130000000000130000000013
#01215:00001300000013000000001300000000
#01212:23000000130000000013000000001300
#0121b:2313000000000000
#00812:00000000000013130000000000000000
#00819:00000000000000000013000000000000
#00816:00000000000000000000001300000000
#00817:00000000000000130000000000000000
#00814:00000000000000000013000000000000
#00815:00130000
#0081b:23000000000000000000001300000000
#00818:0013000000000000
#01015:0013000000000013
#01012:00000000000000000000001300000000
#0101b:1300001300000000
#01018:00130000
#00618:1300000013000013
#00612:13000000000000130000000000000000
#0061b:00001300001300000000130000000000
#00615:00130000
#00515:1300000013000013
#0051b:13000000000000130000000000000000
#00512:00001300001300000000130000000000
#00518:00130000
#00418:0000000013000013
#00412:00000000000000130000000000000000
#0041b:00001300001300000000130000000000
#00415:00130000
#0291b:13000013
#02912:0000001300001300
#02918:0000001300130000
#02915:1300000000130000
#02914:0013000000000000
#02913:00130000
#02919:00130000
#0291a:0013000000000000
#03717:0000000000130000
#03715:0000002300000000
#03714:00230000
#03713:0023000000000000
#0371b:0000002300000000
#0371a:00230000
#03719:0023000000000000
#03718:23
#03712:23
#04612:24
#0461a:24
#01115:0000000023000023
#01112:2300002300000000
#0111b:23000000000000002300002300000000
#01118:00000023000000000000000000000000
#04112:2200002200000000
#0411c:0000002200000000
#04118:0000000000220000
#04119:00220000
#04115:0022000000000000
#04116:00000024
#0401a:0000002200000022
#04017:00000022
#04014:0000002200220000
#04012:22
#04016:00000022000000000000000000000000
#04018:22
#0401c:00000022000000000000000000000000
#00315:00230000000000230000000023000000
#0031b:23000000002300002300000000000000
#00312:00000023000000000000000000000000
#00318:0023000000000000
#00310:41
#01555:00000013000000000000000013000000
#01558:0000001300001300
#01552:0053
#0155b:1363
#01152:00000000000000000000001300000000
#01155:00000013000000000000000000000000
#0115b:1313
#00455:13
#00458:13
#0345b:0000000000000013
#03452:0000000000000013
#03455:00000000000000000000006300000000
#04652:14
#0465a:14
#03552:00530000
#0355b:00130000
#03556:0000002300000000
#0245b:1323
#02452:53
#02457:0000005300000000
#03252:1323
#03255:0000006300000000
#01955:16
#01956:00000016000000000000000000000000
#01957:0000001600000000
#01958:00000000000000000016000000000000
#0365b:1323
#03658:0000005300000000
#03755:0000001300000000
#0375b:0000001300000000
#02852:13000000000000000000000053000026000053000026000000000000000000000000000000000000000000000000000000000000000000000000000000000000
#0285b:0000006300000000
#02857:0023
#04156:00000014
#0445a:0064
#04352:0054
#04356:0000000000240000
#0395b:00630000
#03957:0000002300000000
#03956:23
#03852:0000000000000053
#02655:0000000000230013
#02658:0000000000000053
#02652:0053
#02758:00130000
#02755:00630000
#0275b:23
#02058:0000005300000000
#02052:00130013
#00956:0000002300000023
#00952:00530053
#00957:0023000000230000
#0095b:6363
#0165b:00130013
#0175b:00130013
#0295b:00000023
#02952:0000001300002300
#02958:0000001300530000
#02955:0000000000630000
#02556:14
#04556:0064
#04552:00000000005400000000000000000000
#0023c0:0000001200000000
#002380:00000000000000000022000000000000
#003320:00000013002300000000000000000000
#0033b1:00000000001300230000000000000000
#0033b1:0013
#003381:00000033
#004381:23
#003350:00000013
#004350:23
#004350:00000000000000000000001300000000
#004320:0000000000000023
#005380:00000000000000000000001300000000
#0053b0:0000000000000023
#006350:00000000000000000000001300000000
#006320:0000000000000023
#007360:00000000000000000000001300000000
#008320:23
#0083b0:0000000000001323
#008321:0000000000000013
#009321:23
#0093b0:13230000
#009370:0053000000000000
#009321:00132300
#009361:0000005300000000
#0093b0:00001323
#009370:0000000000530000
#009321:00000013
#009361:0000000000000053
#010321:23
#010351:00000000000000130023000000000000
#010380:00000000000000000013002300000000
#0103b0:0000000000001323
#011320:13
#011350:00530023000000000000000000000000
#011381:00000013000000000000000000000000
#0113b1:0000532300000000
#011351:0013
#011321:00000000000000000053002300000000
#0113b0:00000000000000000000001300000000
#011380:0000000000005323
#0123b0:00000000000000130023000000000000
#012380:0000000000001323
#013350:13
#013320:00000023000000000000000000000000
#0133b1:00000013000000000000000000000000
#013381:0000002300000000
#014381:13
#0143b1:00000023000000000000000000000000
#014320:00000013000000000000000000000000
#014350:0000002300000000
#014320:0000000000001323
#015320:0013
#015350:00000023
#0153b1:0013
#015381:00000023
#018321:00130000000000000000000000000000
#018351:00000023000000000000000000000000
#018380:00000013000000000000000000000000
#0183b0:00000000002300000000000000000000
#018321:00000000001300000000000000000000
#018351:00000000000000230000000000000000
#018380:00000000000000130000000000000000
#0183b0:00000000000000000023000000000000
#020380:0000001300000000
#0203b0:0000000000230000
#022380:00000000000000000000001300000000
#0223b0:00000000000000000000000000230000
#022351:00000000000000000000000000130000
#023321:23
#023351:00000000000000001300002300000000
#023380:00000000000000000000001300002300
#024320:13
#024360:00000023000000000000000000000000
#024370:0000001300230000
#0243b0:0053
#025370:000000000000000000000000000000000000000000000000000000000000000000000000000000000000000000000000000000000000000000000000000000000000000000000000000000000000000000000000000000000000000000000000000000000000000000000000000000000000000000000000120000000000000000000000000000000000005200000000520000520052000052000000000000000000000000000000220000000000000000000000000000000000000000000000
#025360:000000000000000000000000000000000000000000000000000000000000000000000000000000000000000000000000000000000000000000000000000000000000000000005200000000520000000000000000000000000000000000000000
#0253a0:00000000000000000000000000000000000000000000000000000000000000000000000000000000000000000000005200000000000000000000000000000000
#025340:000000000000000000000000000000000000000000000000000000000000000000000000000000000000000000000000000000000000000000000000000000000000000000000052000000000000000000000000000000000000000000000000
#025390:000000000000000000000000000000000000000000000000000000000000000000000000000000000000000000000000000000000000000000000000000000000000000000000000000000000000000000000000000000000000000000000000000000000000000000000000000000000000000000000000000000000000000000000000000000000000000000000052000000000000000000000000000000000000000000000000000000000000000000000000000000000000000000000000
#025350:000000000000000000000000000000000000000000000000000000000000000000000000000000000000000000000000000000000000000000000000000000000000000000000000000000000000000000000000000000000000000000000000000000000000000000000000000000000000000000000000000000000000000000000000000000000000000000000000005200000000000000000000000000000000000000000000000000000000000000000000000000000000000000000000
#025380:000000000000000000000000000000000000000000000000000000000000000000000000000000000000000000000000000000000000000000000000000000000000000000000000000000000000000000000000000000000000000000000000000000000000000000000000000000000000000000000000000000000000000000000000000000000000000000000000000052005200005200000000000000000000000000000000000000000000000000000000000000000000000000000000
#026320:00001323
#026350:0000000000530000
#026380:0000000000000013
#0273b0:53
#027380:0023000000000000
#027350:00130000
#027320:0023
#0273b0:0000000000132300
#027320:0000000000000013
#028320:23
#028381:16
#0283a1:00000022000000000000000000000000
#028320:00000000000000000000000013000056000053000056000023000000000000000000000000000000000000000000000000000000000000000000000000000000
#0283b1:0000001300230000
#028371:0053
#029351:0000000000130023
#029321:00000053
#029380:0000000000130023
#0293b0:00000053
#0303b0:0000000000000013
#0313b0:0023000000000000
#031320:00132300
#032350:0000001300230000
#032320:0053
#034350:00000000000000000000001300000000
#034320:0000000000000023
#035320:00132300
#035360:0000005300000000
#036380:0000001300230000
#0363b0:0053
#037320:0000000000130000
#037360:00000000000000000000000000230000
#0373b1:00000000000000000000000000130000
#038371:23
#038321:0000000000000013
#039361:53
#039321:0023000000000000
#0393b1:00132300
#039371:0000005300000000
#041321:0000001200000000
#041361:0000000000220000
#043321:00001424
#043361:0000000000540000
#0443a1:0014
#044361:00000000000000000000002400000000
#045321:00000000001400000000000000000000
#045361:00000000000000240000000000000000
#045361:0014
#045321:00000024
