This file was generated by Ched 2.7.0.0.
#TITLE ""
#ARTIST ""
#DESIGNER ""
#DIFFICULTY 0
#PLAYLEVEL
#SONGID ""
#WAVE ""
#WAVEOFFSET 0
#JACKET ""
#REQUEST "ticks_per_beat 480"
#00002: 4
#BPM01: 134
#00008: 01
#TIL00: ""
#VOLUME: ""
#HISPEED 00
#MEASUREHS 00
#00412:0000130000000014
#0041a:0014
#00416:00000000000000000000001400000000
#0041b:00130000
#00518:13
#0051b:00130000
#00512:00131400
#00516:00000000000000000000001400000000
#0051a:0000000000000014
#04312:00000000000000140000000000000000
#04317:0014
#02318:0000001300000000
#02315:00230000
#02915:13
#0291b:0013000000000000
#02912:0000130000130000
#02918:0000001300000000
#03118:00000013
#03115:0000000000130000
#03112:0000000000000013
#03312:1300000000130000
#0331b:0013000000000000
#03318:0000130000000013
#03315:0000001300001300
#03818:0013000000130000
#0381b:0000001300000013
#03812:0013
#03815:00130013
#03810:41
#0391b:0000000000130000
#03918:00000013
#03915:0000000000000013
#03912:00130000
#0131b:0000000000130000
#01318:00000013
#01315:0000000000000013
#01012:13000013
#01015:0013000013000013
#01018:0000130000130000
#0101b:0000001300000000
#01215:0000001300001300
#01218:0000130000000013
#01212:0013000000000000
#0121b:23
#01615:0013000000130000
#01612:0000130000000013
#0161b:0000001300000000
#01618:1313
#0161f:11
#0171b:13
#01718:0013000000000013
#01715:00130013
#01712:0000001300130000
#01815:00000013
#01818:0000000000000013
#02015:0000130000000013
#02018:0013000000000000
#0201b:13
#02012:0000001300000000
#02218:00000000000000001300000000130000
#02215:2300000000130000
#0221b:00000023000000000000000000000000
#02212:0000002300000000
#01915:0000000000000013
#01918:00000000000000000026000000000000
#01914:0000002600000000
#01916:00000026000000000000000000000000
#01912:26
#02118:0023000000130013
#02115:00230013
#0211b:23
#02112:0000002300000000
#00115:0000000000130000
#00118:00000013
#0011b:0000000000000013
#0011a:14
#00116:00000014000000000000000000000000
#00112:0000001400000000
#03415:0013000000130000
#03412:0000001300000000
#0341b:1313
#03418:0000130000000023
#03015:0013000000000000
#03014:0000001300000000
#0301b:00000013
#03013:0000000000130000
#03018:13
#03019:00130000
#0301a:0013
#00212:13
#00215:0013000000001300
#00218:0000130000000013
#00615:13
#00612:0000130000000014
#0061a:0014
#00616:00000000000000000000001400000000
#0061b:00130000
#00718:00000000000000000000001300000000
#02612:1313
#0261b:0000001300000013
#02615:00130000
#02618:0013000000000000
#0271b:0000000000130000
#02715:00000013
#02718:0000000000000013
#02712:00130000
#02816:00000014000000000000000000000000
#0281a:0000001400000000
#02812:24000013
#02818:0000000000000013
#0251b:0000000000130000
#02515:2600130000000013
#02518:0000001300001300
#02512:0013000000000000
#02510:41
#0241b:00000013
#02412:0000001400000013
#02416:00000014000000000000000000000000
#0241a:24
#0241f:21
#03218:00000013000013000000000000001300
#03215:00001300001300000000000013000000
#0321b:23
#03210:41
#0441a:00000000000000140000000000000014
#04417:00000000000000000000000000140000
#04419:0000000000000034
#04512:00000000001400000000000000002400
#04518:00000000000000140000000000000000
#04514:0014
#0451a:00000024
#04519:34
#00912:13
#0091b:0013
#00910:41
#00818:0013000013000013
#00815:0000130000130000
#00812:0000001300000000
#0081b:00000013
#01412:0000000000130000
#01415:00000013
#01418:0000000000000013
#03615:00000013000013000000000000001300
#03618:00001300001300000000000013000000
#03612:23
#03515:00000013
#03518:00000026000000000000130000000000
#0351b:0000000000000013
#03512:0026260000000000
#0371b:23
#03712:0023000000000000
#03715:00230000
#03718:0000002300000000
#0151b:23
#01512:00000023000000000000000000000000
#01518:0000002300000000
#01515:0023
#01510:41
#0111a:24
#01114:00000024000000000000000000002400
#01118:00000000000024000000002400000000
#01112:0024
#04616:24
#00314:24
#00318:00000024
#00313:00340000000000000000000000000000
#00312:00003434000000000000000000000000
#00310:41
#0401b:23
#04015:00000023000000000000000000002300
#04018:0000002300002300
#04012:0000000000230000
#0411b:23
#04112:0023000000000000
#04118:00230000
#04115:0000002300000000
#03758:0000001300000000
#02052:0000005300000000
#01958:00000000000000000016000000000000
#01954:0000001600000000
#01956:00000016000000000000000000000000
#01952:16
#0115a:14
#01152:0014
#02255:13
#02258:00000000000000000000000000530000
#02958:0000001300000000
#02952:0000000000530000
#04656:14
#00758:00000000000000000000005300000000
#0285a:0000006400000000
#02452:0000005400000000
#02555:16
#03258:0000005300000000
#04155:00000013
#04357:0054
#00952:53
#0095b:0063
#01555:0063
#01552:00000013
#0235b:13
#02752:00130000
#0265b:0000000000000063
#02652:0053
#03655:0000006300000000
#03458:0000000000000013
#03552:00160000
#0385b:0000000000000063
#03952:00530000
#00458:14
#00454:14
#04457:00000000000000000000000000540000
#0445a:00000000000000000000000000000024
#0023b0:0000001300000000
#002380:0000000000230000
#003340:14003434
#003330:00340000000000000000000000000000
#003320:00003434003400000000000000000000
#004340:24
#003381:00000014
#004381:24
#007381:13000000000000330000003300000000
#0073b1:00330000
#0073a1:00000000000000000033000000000000
#0083b1:23
#009321:13
#009351:00230000
#0093b1:0013
#009381:00000023
#012381:00000000000000130000000000000000
#0123b1:0000000000230000
#013351:1300002300000000
#013321:00000033000000000000000000000000
#014381:1300002300000000
#0143b1:00000033000000000000000000000000
#015351:0013
#015321:00000023
#0183b1:13000000003300000000230000000000
#018381:00000033000000330000000000000000
#020321:0000001300000000
#020351:0000000000230000
#022381:00000000000000000000001300330000
#0233b1:23
#023321:0000000013000023
#023351:00000000000000000000003300000000
#024321:0000001400000000
#024351:0000000000240000
#026321:0013
#026361:00000023
#0263b1:0000000000000013
#027371:0023000000000000
#0283a1:0000001400000000
#028371:0000000000240000
#029321:0000000000130000
#029351:0000000000000023
#030321:0000000000000013
#031321:0023000000000000
#0313b1:00132300
#032381:0000001300000000
#0323b1:0000000000230000
#034381:00000000000000000000001300002300
#036351:0000001300000000
#036321:0000000000230000
#037321:0000000000130000
#037351:00000000000000000000000000330000
#038321:23
#0383b1:0000000000000013
#039371:0023000000000000
#039321:00130000
#039361:0023
#041351:0000001300332300
#0433a1:14
#043391:00340000000000000000000000000000
#043381:0034000000000000
#043371:00000034002400000000000000000000
#043371:0014
#0433a1:00000024
#043321:00000000000000000000000000001434
#044321:34
#044331:00340000000000000000000000000000
#044341:0034000000000000
#044351:00000034002400000000000000000000
#044351:0014
#044321:00000000000000000000002400000000
#044371:00000000000000000000000000140000
#044391:0000000000000034
#0443a1:00000000000000000000000000000034
#045391:34
#045371:00340024000000000000000000000000
