This file was generated by Ched 2.7.0.0.
#TITLE ""
#ARTIST ""
#DESIGNER ""
#DIFFICULTY 0
#PLAYLEVEL
#SONGID ""
#WAVE ""
#WAVEOFFSET 0
#JACKET ""
#REQUEST "ticks_per_beat 480"
#00002: 4
#BPM01: 134
#00008: 01
#TIL00: ""
#VOLUME: ""
#HISPEED 00
#MEASUREHS 00
#00416:00000000000000000000141400001400
#0041a:00000000141400000000000000000000
#00418:00000000000000141400000000000000
#00412:2613000013130000
#00415:0000131300000000
#0051b:1313000013130000
#00516:00000000000000000000141400001400
#00518:0000131300000000
#00512:13000000141400000000000000000000
#00514:00000000000000141400000000000000
#00814:00001300000000000013000000001300
#00812:23000000000013130000000000000000
#0081b:23131313
#00816:00000000130000000000001313000000
#02715:00000013
#02712:13000000000000130013000000130000
#02714:0013000000000000
#0271b:1300130000130013
#02718:00000000000000000000001300000000
#02717:0013
#02716:00130000
#02812:2313000000130000
#02816:00001313
#02819:0000000000000013
#02814:00000000001300000000000000001300
#0281b:0000002300001300
#02817:0000000000002316131600000000000000000000130000000000000000000000
#02818:00000000000000130000000000000000
#02815:26
#0311b:13000000000000130000000000130000
#03115:00000000130000000000000000000013
#03118:00000000001300000000000000001300
#03112:1313000000001300
#03119:00000000000000000013000000000000
#03114:0000000000130000
#03116:0013
#03117:00000000000000000000001300000000
#0311a:0024000000000000
#02512:0013000013220000
#0251b:0013000000000000
#02517:0000130000130000
#02516:2200000000000013
#02518:22000022
#02510:41
#03612:13000000001313000000000000001300
#0361b:2313000013001300
#03616:00001313000000001300000013000000
#03617:0000001300130013
#03812:0013000000131300
#0381b:0000001300001300
#03817:2300000023130000
#03815:0000000000000013
#03816:00230000
#03810:41
#01716:0000000000000013
#01714:13130013
#01712:0013000000000000
#0171b:0023002300230023
#01818:00130000000000000000000000130013
#0181b:13000000000000130000000000000000
#01815:0013000000001313
#01817:00000013000000000013130000000000
#01812:00000013000000000000130000000000
#01814:00000000001300000000000000000000
#01819:00000000001300000000000000000000
#02017:00130000
#02019:0013000013000000
#0201b:1300001300000000
#02012:1323002300230023
#0191b:13000013
#01915:00000000000000001329000000001300
#0191a:00000000001300000000000000000000
#01913:00001329000000000000000000000000
#01918:00000000000000000000001300000013
#01912:29000013
#01914:0000002900000000
#0211b:13000000000000001300001300000000
#02116:00000000000015000012120013000000
#02118:0000000015000000000000000000000000000012000000000000000000000000
#02117:00000000000000000000000000000013
#02114:0013000000000013
#02119:00000000130000000000000000130000
#02112:0000001300000000
#02115:15
#02113:00150000
#00118:12000012000000000000000000001200
#0011c:00000012000000000000000000000000
#0011a:0000001200000000
#00112:0000000000120000
#00113:00000012
#00114:1200000000000012
#00116:0000001200120000
#00117:00000012
#00215:12
#00216:0012000000000012
#00217:00120000
#00218:0000001200000000
#00212:00000000000000000012120000000000
#0021c:00000012
#00219:12
#0021a:0012000000000000
#0021b:00120000
#00214:00000012
#0321b:13000000001313000000000000001300
#03212:2313000013001300
#03217:00001313000000001300000013000000
#03216:0000001300130013
#03210:41
#02412:26000000001300000000000000000000
#0241b:0013000013000000
#02415:0000000000160000
#02416:0013000000000000
#02417:0000001300000012
#02414:00000013
#02419:00000013
#0241f:21
#0261b:00002313
#0261a:0000001300000000
#02617:2300000000000013
#02612:13000023
#02619:00130000
#02613:0013000000000000
#02614:0000230000130000
#02616:0013
#02315:00001600000000130013001300000000
#02318:160000000000000000000000000000000000000000000000000000000000000000000000130000000000000000000000130000000000000000000000130000000000000000000000263636363636360036003600360000000000000000000000
#0231b:00130000
#02312:13260000
#0221b:13000023000000000013000000000000
#02215:00001313000000001300000013000013
#02218:00000000001313000000001300260000
#02212:2300002300130000
#0301b:1300000013130000
#03018:00000016000013000000000013000000
#03015:0000130013000013
#03012:1313000000000000
#03014:0000000000220000
#0301a:0022000000000000
#02918:0000000000000013
#0291b:0013130013131300
#02915:00000000000000001300000000000013
#02917:1300001300000000
#02912:1300000000240000
#02916:00130000
#04416:0014000000000012
#04418:00000000000000000000000000120012
#0441a:24000014002400142400000000000000
#04412:00140024001400142400000000000000
#0431a:24001424000000240000140000000000
#04316:00140000000000141400140000000012
#04318:0000000000000012
#04312:1424
#0451a:00000000001400001400000000000000
#04516:00000000000000140000000024000000
#04512:00260000001400001400000000000000
#04518:000000000000000000000000000000000000000000000000000000000000000000000000000000000000000000000000000000000000000000000000000000000000000000000000000000000000000000000000000000000000000000000000000000000000000000000000000000000000000000000000260000000000000000000000000000000000000000000000000000000000000000000000000000000011000000000000000000000000000000000000000000000000000000000000000000000000000000000000000000000000000000000000000000000000000000000000000000000000000000000000000000000000000000000000000000000000000015000000000000000000000000000000000000000000000000000000000000000000000000000000000000000000000000000000000000000000000000000000000000000000000000000000000000000000000000000000000000000000000000000000000000000000000000000000000000000000000000000000000000000000000000000000000000000000000000000000000000000000000000000000000000000000000000000000000000000000000000000000000000000000000000000000000000000000000000000000000000000000000000000000000000000000000000000000000000000000000000000000000000000000000000000000000000000000000000000000000000000000000000000000000000000000000000000000000000000000000000000000000000000000000000000000000000000000000000000000000000000000000000000000000000000000000000000000000000000000000000000000000000000000000000000000000000000000000000000000000000000000000000000000000000000000000000000000000000000000000000000000000000000000000000000000000000000000000000000000000000000000000000000000000000000000000000000000000000000000000000000000000000000000000000000000000000000000000000000000000000000000000000000000000000000000000000000000000000000000000000000000000000000000000000000000000000000000000000000000000000000000000000000000000000000000000000000000000000000000000000000000000000000000000000000000000000000000000000000000000000000000000000000000000000000000000000000000000000000000000000000000000000000000000000000000000000000000000000000000000000000000000000000000000000000000000000000000000000000000000000000000000000000000000000000000000000000000000000000000000000000000000000000000000000000000000000000000000000000000000000000000000000000000000000000000000000000000000000000000000000000000000000000000000000000000000000000000000000000000000000000000000000000000000000000000000000000000000000000000000000000000000000000000000000000000000000000000000000000000000000000000000000000000000000000000000000000000000000000000000000000000000000000000140000000000000000000000000000000000000000000000000000000000000000000000000000000000000000000000000000000000000000000000000000000000000000000000000000000000000000000000000000000000000000000000000000000000000000000000000000000000000000000000000000000000000000000000000000000000000000000000000000000000000000000000000000000000000000000000000000000000000000000000000000000000000000000000000000000000000000000000000000000000000000000000000000000000000000000000000000000000000000000000000000000000000000000000000000000000000000000000000000000000000000000000000000000000000000000000000000000000000000000000000000000000000000000000000000000000000000000000000000000000000000000000000000000000000000000000000000000000000000000000000000000000000000000000000000000000000000000000000000000000000000000000000000000000000000000000000000000000000000000000000000000000000000000000000000000000000000000000000000000000000000000000000000000000000000000000000000000000000000000000000000000000000000000000000000000000000000000000000000000000000000000000000000000000000000000000000000000000000000000000000000000000000000000000000000000000000000000000000000000000000000000000000000000000000000000000000000000000000000000000000000000000000000000000000000000000000000000000000000000000000000000000000000000000000000000000000000000000000000000000000000000000000000000000000000000000000000000000000000000000000000000000000000000000000000000000000000000000000000000000
#04513:240000000000000000000000001500000000000000000000000000000000000000000000000000000000000000000000000000000000000000000000000000000000000000000000000000000000000000000000000000000000000000000000
#04517:000000000000000000000000000000000000000000000000000000000000000000000000000000000000000000000000000000000000000000000000000000000000000000000000000000000000000000000000000000000000000000000000000000000000000000000000000000000000000000000000000000000000000000000000000000000000000000000000000000000000000000000000000000000011000000000000000000000000000000000000000000000000000000000000000000000000000000000000000000000000000000000000000000000000000000000000000000000000000000000000000000000000000000000000000000000000000000000000000000000000000000000000000000000000000000000000000000000000000000000000000000000000000000000000000000000000000000000000000000000000000000000000000000000000000000000000000000000000000000000000000000000000000000000000000000000000000000000000000000000000000000000000000000000000000000000000000000000000000000000000000000000000000000000000000000000000000000000000000000000000000000000000000000000000000000000000000000000000000000000000000000000000000000000000000000000000000000000000000000000000000000000000000000000000000000000000000000000000000000000000000000000000000000000000000000000000000000000000000000000000000000000000000000000000000000000000000000000000000000000000000000000000000000000000000000000000000000000000000000000000000000000000000000000000000000000000000000000000000000000000000000000000000000000000000000000000000000000000000000000000000000000000000000000000000000000000000000000000000000000000000000000000000000000000000000000000000000000000000000000000000000000000000000000000000000000000000000000000000000000000000000000000000000000000000000000000000000000000000000000000000000000000000000000000000000000000000000000000000000000000000000000000000000000000000000000000000000000000000000000000000000000000000000000000000000000000000000000000000000000000000000000000000000000000000000000000000000000000000000000000000000000000000000000000000000000000000000000000000000000000000000000000000000000000000000000000000000000000000000000000000000000000000000000000000000000000000000000000000000000000000000000000000000000000000000000000000000000000000000000000000000000000000000000000000000000000000000000000000000000000000000000000000000000000000000000000000000000000000000000000000000000000000000000000000000000000000000000000000000000000000000000000000000000000000000000000000000000000000000000000000000000000000000000000000000000000000000000000000000000000000000000000000000000000000000000000000000000000000000000000000000000000000000000000000000000000000000000000000000000000000000000000000000000000000000000000000000000000000000000000000000000000000000000000000000000000000000000000000000000000000000000000000000000000000000000000000000000000000000000000000000000000000000000000000000000000000000000000000000000000000000000000000000000000000000000000000000000000000000000000000000000000000000000000000000000000000000000000000000000000000000000000000000000000000000000000000000000000000000000000000000000000000000000000000000000000000000000000000000000000000000000000000000000000000000000000000000000000000000000000000000000000000000000000000000000000000000000000000000000000000000000000000000000000000000000000000000000000000000000000000000000000000000000000000000000000000000000000000000000000000000000000000000000000000000000000000000000000000000000000000000000000000000000000000000000000000000000000000000000000000000000000000000000000000000000000000000000000000000000000000000000000000000000000000000000000000000000000000000000000000000000000000000000000000000000000000000000000000000000000000000000000000000000000000000000000000000000000000000000000000000000000000000000000000000000000000000000000000000000000000000000000000000000000000000000000000000000000000000000000000000000000000000000000000000000000000000000000000000000000000000000000000000000000000000000000000000000000000000000000
#04514:0000000000000028
#04519:24
#03915:0000000000001212
#0391b:13001300000000130000000000000000
#03918:00131300
#03912:13000013000000000000120000000000
#0391c:0000000000120000
#03919:00000000000000000000000000120000
#03716:0026000000001300
#03718:1300002600000000
#03713:0013000000000000
#0371a:00130000
#03715:0000001300000000
#03712:2600000013130000
#03717:00000000000000000000000000000013
#0371b:0013
#03714:00260000
#03518:00000023000000000012120000001300
#03516:0000000000000000000000000000000000000012000000000000000000000000
#03514:0013
#03512:00000000230000000000001300000000
#03519:00000000000012120000000000000000
#03517:0000000000000000000000000012000000000000000000000000000000000000
#03515:00002300000000000000000000130013
#0351b:00230013
#03416:00000000230000000000131300002300
#03412:1300000000000000000000000000000013000000000000000013000000000000
#03419:0013000000000000
#0341b:00000000130000000000131300002300
#03417:2300000000000000000000000000000023000000000000000013000000000000
#03414:0000001300000000
#03312:1300130000131300
#03315:0000000000000013
#03318:00000000000000000000000000130000
#03316:0013001300000000
#03317:0000000013130000
#00316:0000000000130000
#00312:23000023000000002300000000000000
#00318:000000000000230000000000000000000000000000000000000000000000230000000000000000000000000000000000000000000000000000000000000000000000000000000000263636363636360036003600360000000000000000000000
#00315:00002300000000230000000000000000
#0031b:23000023000000002300000000000000
#00310:41
#0071b:13000000230013130000001300000000
#00718:00001300000000000000000000130013
#00715:00000013000000000000000000001300
#00712:23000000130000000013000000000000
#00716:00000000000000230000002300000000
#00717:00000000000000000023000000000000
#00912:13000000000000000000130000130000
#00916:0013000013000000
#0091b:13131313
#00917:0000000000130013
#00910:41
#01019:00001300000000000013000000001300
#0101b:13000000000013130000000000000000
#01012:13131313
#01017:00000000130000000000001313000000
#0131b:00000013000000000000001300000000
#01317:00000000000000000000000000000013
#01315:00000000000000000000000000130000
#01316:0000000000130000
#01318:00000013
#01312:0013000013000013
#0141b:0013000013000000
#01412:00000013000000000000000000001300
#01415:00000000000000000000001300000000
#01418:0000000000130000
#01516:23000000000023000000130000000013
#01512:00001313000000002300000000000000
#0151b:13000000001313000000230000000000
#01517:00000023000000002300000000000000
#01510:41
#01215:00000000000000000000000000000013
#01217:00001300000000130000000000000000
#01218:0000000000000013
#01212:2413001300000000
#0121b:00000000000000000000001300000000
#01219:00000000000000000013000000000000
#01216:0000130000130000
#01214:0013
#0121a:24
#0121a:24
#00612:1313000013130000
#0061b:13
#00616:00000000000000000000141400001400
#00615:0000131300000000
#0061a:00000000141400000000000000000000
#00618:00000000000000141400000000000000
#0161b:1323002300230023
#01612:00130000
#01616:1300001300000000
#01614:0013000013000000
#0161f:11
#04117:12121200
#04112:2200002200000000
#0411c:0000002200220000
#04119:00220000
#04115:0022000000000000
#04114:00000028
#04019:00000022000000000000000022000000
#04017:2200002200000022
#04015:00000022000000000000000022000000
#0401b:2200000000000022
#04013:0000002200220000
#0111a:2400002400000000
#0111a:2400002400000000
#01116:23000024000000240000002400000000
#01116:00000024000000000000002400000000
#01112:0000000024000024
#01112:0000000024000024
#01117:0023
#04612:2c
#02852:13
#02858:00000000000000230000000000000000
#0285b:0000006300000000
#02857:0000000000005326532600000000000000000000000000000000000000000000
#0365b:13
#03656:0023
#03652:0000005300000000
#03252:13
#03257:0023
#0325b:0000006300000000
#02657:0000000000000013
#02556:32
#02558:42
#01952:39
#01953:00000049000000000000000000000000
#01954:0000003900000000
#01955:00000000000000000049000000000000
#03058:00000026000000000000000000000000
#0305a:0062000000000000
#04452:00000034000000000000003400000000
#0445a:00000000004400000000004400000000
#04352:00005434
#04356:0000000054243400
#0435a:0000000000240000
#02756:00130000
#0275b:00630000
#02952:2300001300000000
#02957:0000001300000000
#02956:00630000
#04652:1c
#04552:00000016000000005400000000000000
#04558:000000000000000000000000000000000000000000000000000000000000000000000000000000000000000000000000000000000000000000000000000000000000000000000000000000000000000000000000000000000000000000000000000000000000000000000000000000000000000000000000000000000000000000000000000000000000000000000000000000000000000000000000000000000051000000000000000000000000000000000000000000000000000000000000000000000000000000000000000000000000000000000000000000000000000000000000000000000000000000000000000000000000000000000000000000000000000025000000000000000000000000000000000000000000000000000000000000000000000000000000000000000000000000000000000000000000000000000000000000000000000000000000000000000000000000000000000000000000000000000000160000000000000000000000000000000000000000000000000000000000000000000000000000000000000000000000000000000000000000000000000000000000000000000000000000000000000000000000000000000000000000000000000000000000000000000000000000000000000000000000000000000000000000000000000000000000000000000000000000000000000000000000000000000000000000000000000000000000000000000000000000000000000000000000000000000000000000000000000000000000000000000000000000000000000000000000000000000000000000000000000000000000000000000000000000000000000000000000000000000000000000000000000000000000000000000000000000000000000000000000000000000000000000000000000000000000000000000000000000000000000000000000000000000000000000000000000000000000000000000000000000000000000000000000000000000000000000000000000000000000000000000000000000000000000000000000000000000000000000000000000000000000000000000000000000000000000000000000000000000000000000000000000000000000000000000000000000000000000000000000000000000000000000000000000000000000000000000000000000000000000000000000000000000000000000000000000000000000000000000000000000000000000000000000000000000000000000000000000000000000000000000000000000000000000000000000000000000000000000000000000000000000000000000000000000000000000000000000000000000000000000000000000000000000000000000000000000000000000000000000000000000000000000000000000000000000000000000000000000000000000000000000000000000000000000000000000000000000000000000000000000000000000000000000000000000000000000000000000000000000000000000000000000000000000000000000000000000000000000000000000000000000000000000000000000000000000000000000000000000000000000000000000000000000000000000000000000000000000000000000240000000000000000000000000000000000000000000000000000000000000000000000000000000000000000000000000000000000000000000000000000000000000000000000000000000000000000000000000000000000000000000000000000000000000000000000000000000000000000000000000000000000000000000000000000000000000000000000000000000000000000000000000000000000000000000000000000000000000000000000000000000000000000000000000000000000000000000000000000000000000000000000000000000000000000000000000000000000000000000000000000000000000000000000000000000000000000000000000000000000000000000000000000000000000000000000000000000000000000000000000000000000000000000000000000000000000000000000000000000000000000000000000000000000000000000000000000000000000000000000000000000000000000000000000000000000000000000000000000000000000000000000000000000000000000000000000000000000000000000000000000000000000000000000000000000000000000000000000000000000000000000000000000000000000000000000000000000000000000000000000000000000000000000000000000000000000000000000000000000000000000000000000000000000000000000000000000000000000000000000000000000000000000000000000000000000000000000000000000000000000000000000000000000000000000000000000000000000000000000000000000000000000000000000000000000000000000000000000000000000000000000000000000000000000000000000000000000000000000000000000000000000000000000000000000000000000000000000000000000000000000000000000000000000000000000000000000000000000000000000
#04553:000000000000000000000000002500000000000000000000000000000000000000000000000000000000000000000000000000000000000000000000000000000000000000000000000000000000000000000000000000000000000000000000
#04557:000000000000000000000000000000000000000000000000000000000000000000000000000000000000000000000000000000000000000000000000000000000000000000000000000000000000000000000000000000000000000000000000000000000000000000000000000000000000000000000000000000000000000000000000000000000000000000000000000000000000000000000000000000000061000000000000000000000000000000000000000000000000000000000000000000000000000000000000000000000000000000000000000000000000000000000000000000000000000000000000000000000000000000000000000000000000000000000000000000000000000000000000000000000000000000000000000000000000000000000000000000000000000000000000000000000000000000000000000000000000000000000000000000000000000000000000000000000000000000000000000000000000000000000000000000000000000000000000000000000000000000000000000000000000000000000000000000000000000000000000000000000000000000000000000000000000000000000000000000000000000000000000000000000000000000000000000000000000000000000000000000000000000000000000000000000000000000000000000000000000000000000000000000000000000000000000000000000000000000000000000000000000000000000000000000000000000000000000000000000000000000000000000000000000000000000000000000000000000000000000000000000000000000000000000000000000000000000000000000000000000000000000000000000000000000000000000000000000000000000000000000000000000000000000000000000000000000000000000000000000000000000000000000000000000000000000000000000000000000000000000000000000000000000000000000000000000000000000000000000000000000000000000000000000000000000000000000000000000000000000000000000000000000000000000000000000000000000000000000000000000000000000000000000000000000000000000000000000000000000000000000000000000000000000000000000000000000000000000000000000000000000000000000000000000000000000000000000000000000000000000000000000000000000000000000000000000000000000000000000000000000000000000000000000000000000000000000000000000000000000000000000000000000000000000000000000000000000000000000000000000000000000000000000000000000000000000000000000000000000000000000000000000000000000000000000000000000000000000000000000000000000000000000000000000000000000000000000000000000000000000000000000000000000000000000000000000000000000000000000000000000000000000000000000000000000000000000000000000000000000000000000000000000000000000000000000000000000000000000000000000000000000000000000000000000000000000000000000000000000000000000000000000000000000000000000000000000000000000000000000000000000000000000000000000000000000000000000000000000000000000000000000000000000000000000000000000000000000000000000000000000000000000000000000000000000000000000000000000000000000000000000000000000000000000000000000000000000000000000000000000000000000000000000000000000000000000000000000000000000000000000000000000000000000000000000000000000000000000000000000000000000000000000000000000000000000000000000000000000000000000000000000000000000000000000000000000000000000000000000000000000000000000000000000000000000000000000000000000000000000000000000000000000000000000000000000000000000000000000000000000000000000000000000000000000000000000000000000000000000000000000000000000000000000000000000000000000000000000000000000000000000000000000000000000000000000000000000000000000000000000000000000000000000000000000000000000000000000000000000000000000000000000000000000000000000000000000000000000000000000000000000000000000000000000000000000000000000000000000000000000000000000000000000000000000000000000000000000000000000000000000000000000000000000000000000000000000000000000000000000000000000000000000000000000000000000000000000000000000000000000000000000000000000000000000000000000000000000000000000000000000000000000000000000000000000000000000000000000000000000000000000000000000000000000000000000000000000000000000000000000000000000000000000000000000000000000000000000000000000000
#03754:00360000
#03752:36
#03756:0046000000000000
#03758:0000004600000000
#03857:0000000000530000
#0385b:00000023
#03855:0000000000000063
#03952:23
#0345b:00000000430000000000006300004300
#03457:0000000000000000000000000000000000000000000000000023000000000000
#03456:00000000000000000000006300004300
#03452:3300000000000000000000000000000033000000000000000023000000000000
#03552:00330000
#03356:0000006300000000
#03357:0000000000530000
#02452:16
#0035b:00000043000000004300000000000000
#00352:33000000003300005300000000000000
#00356:0000000000230000
#00358:00000066
#00756:00000000000000330000003300000000
#00752:33
#0075b:00430000
#00757:00000000000000000043000000000000
#00952:5300000000230000
#00956:0023000063000000
#0115a:4400004400000000
#01156:00000044000000000000003400000000
#01152:0000000034000034
#0125a:44
#01556:3300003300230000
#01557:00000043000000000000000033000000
#01552:00005333
#0155b:0000000000230000
#00452:16
#02352:00360000
#02358:00000066
#0215b:13
#02152:0000001300000000
#04154:00000018
#0023c0:0000001200000000
#002380:0000000000220000
#003320:00000013002300000000000000000000
#003381:00000000001300230000000000000000
#003321:00001323
#003361:0000000000530000
#003380:000000000000000000000000000000000000000000000000000000000000000000000000000000000000000000000000000000000000000000000000000000000000000000000000163636363636360036003600360000000000000000000000
#004320:26
#004320:0000000000001323
#0053b0:0000000000001323
#006320:0000000000001323
#009320:13230000
#009360:0053000000000000
#009360:00001323
#009320:0000000000530000
#011360:130000000000000000000000000000000000000000000053005300530000530000530000230000000000000000000000000000000000000000000000000000000000000000000000000000000000000000000000000000000000000000000000
#011340:005300005300000000000000000000000000005300005300000000000000000000000000000000000000000000000000000000000000000000000000000000000000000000000000000000000000000000000000000000000000000000000000
#011350:000000005300000000000000000000000000000000000000000000000000000000000000000000000000530000000000530000005300000000530000000000530000000000530000000000000000000000000000000000000000000000000000000000000000000000000000000000000000000000000000000000000000000000000000000000000000000000000000000000000000000000000000000000000000000000000000000000000000000000000000000000000000000000000000
#011330:000000000000530000000000530000005300000000530000000000530000000000530000000000005300000000000000000000000000000000000000000000000000000000000000000000000000000000000000000000000000000000000000000000000000000000000000000000000000000000000000000000000000000000000000000000000000000000000000000000000000000000000000000000000000000000000000000000000000000000000000000000000000000000000000
#011320:000000000053005300530000530000530000530000000000000000000000000000000000000000000000000000000000000000000000000000000000000000000000000000000000000000000000000000000000000000000000000000000000
#011370:000000000000000000000000000000000000000000000000000000000000000000000000000000000000000000000000130000000000000000000000000000000000000000000053005300530000530000530000230000000000000000000000
#011390:000000000000000000000000000000000000000000000000000000000000000000000000000000000000000000000000005300005300000000000000000000000000005300005300000000000000000000000000000000000000000000000000
#011380:000000000000000000000000000000000000000000000000000000000000000000000000000000000000000000000000000000000000000000000000000000000000000000000000000000000000000000000000000000000000000000000000000000005300000000000000000000000000000000000000000000000000000000000000000000000000530000000000530000005300000000530000000000530000000000530000000000000000000000000000000000000000000000000000
#0113a0:000000000000000000000000000000000000000000000000000000000000000000000000000000000000000000000000000000000000000000000000000000000000000000000000000000000000000000000000000000000000000000000000000000000000530000000000530000005300000000530000000000530000000000530000000000005300000000000000000000000000000000000000000000000000000000000000000000000000000000000000000000000000000000000000
#0113b0:000000000000000000000000000000000000000000000000000000000000000000000000000000000000000000000000000000000053005300530000530000530000530000000000000000000000000000000000000000000000000000000000
#0123b0:00130000
#012370:0000002300000000
#012360:00000013
#012320:0000000000000023
#0133b0:13
#013370:0023000000000000
#013360:00130000
#013320:0000002300000000
#013371:0000001300000000
#0133b1:0023
#014321:13
#014361:0023000000000000
#014371:00130000
#0143b1:0000002300000000
#014360:0000001300000000
#014320:0023
#0143b0:00000013
#014370:0000000000000023
#015320:00001323
#015360:0000000000330000
#0153b1:0000000000130000
#015371:00000023
#016321:0000000000130000
#016361:0000000000000023
#017361:0000001300000000
#017321:0000000000230000
#018361:00000000000000130000000000000000
#018321:00000000000000000023000000000000
#020371:0000000000130000
#0203b1:0000000000000023
#023381:000000000000000000000000000000000000000000000000000000000000000000000000000000000000000000000000000000000000000000000000000000000000000000000000163636363636360036003600360000000000000000000000
#024321:26
#0243b1:00000013002300000000000000000000
#024321:0000001323000000
#025321:00130000
#025361:0000002300000000
#0253b0:0000001300000000
#025370:0023
#025320:000000000000000000000000000000125200000000000000
#025330:000000000000000000000000000000000000000000000000000000000000000000000000000000000000000000000000000000000000000000000000000000520052000000000000000000000000000000000000000000000000000000000000
#025350:000000000000000000000000000000000000000000000000000000000000000000000000000000000000000000000000000000000000000000000000000000000000000000000000000000000000000000000000000000000000000000000000000000000000000000000000000000000000000000000000000000000000005200000052000000000000000000000000000000000000000000000000000000000000000000000000000000000000000000000000000000000000000000000000
#025340:00000000000000000000000000000000000000000000000000000000000000000000000000000000000000525200000000000000000000000000000000000000
#025360:00000022
#025381:00000012
#0253a1:00000000000000000000000000000000000000000000000000000000000000000000000000000000000000000000000000000000525200000000000000000000
#025391:000000000000000000000000000000000000000000000000000000000000000000000000000000000000000000000000000000000000000000000000000000000000000000000000000000000000000000000000000000000000000000000000000000000000000000000000000000000000000000000000000000000000000000000000000000000000000000000000000000000000000000000000005200000052000000000000000000000000000000000000000000000000000000000000
#0253b1:000000000000000000000000000000000000000000000000000000000000000000000000000000000000000000000000000000000000000000000000000000000000000000000000000000000000005200520000000000000000000000000000
#0253c1:000000000000000000000000000000000000000052220000
#0273b1:00130000
#027371:00000000000000230000000000000000
#028351:16
#028371:0022000000000000
#028371:0000000000001356535623000000000000000000000000000000000000000000
#0283b1:0000001323000000
#028381:00000000000000530000000000000000
#029321:13
#029361:0023000000000000
#029361:00130000
#029321:0000002300000000
#029321:000000000000000000000000000000000000000000000000000000000000000000000000000000000000000000000000000000000000000000000000000000000000000000000000000000000000000000000000000000000000000000000000000000000000000000000000000000000000000000000000000000000000000000000000000000000000000000000000000000000000000000000000000000000000000000000000000000000000000000000000000000000000000000000000000000000000000000000000000000000000000000000000000000000000000000000000000000000000000000000000000000000000000000000000000000000000000000000000000000000000000000000000000000000000000000000000000000000000000000000000000000000000000000000000000000000000000000000000000000000000000000000000000000000000000000000000000000000000000000000000000000000000000000000000000000000000000000000000000000000000000000000000000000000000000000000000000000000000000000000000000000000000000000000000000000000000000000000000000000000000000000000000000000000000000000000000000000000000000000000000000000000000000000000000000000000000000000000000000000000000000000000000000000000000000000000000000000000000000000000000000000000000000000000000000000000000000000000000000000000000000000000000000000000000000000000000000000000000000000000000000000000000000000000000000000000000000000000000000000000000000000000000000000000000000000000000000000000000000000000000000000000000000000000000000000000000000000000000000000000000000000000000000000000000000000000000000000000000000000000000000000000000000000000000000000000000000000000000000000000000000000000000000000000000000000000000000000000000000000000000000000000000000000000000000000000000000000000000000000000000000000000000000000000000000000000000000000000000000000000000000000000000000000000000000000000000000000000000000000000000000000000000000000000000000000000000000000000000000000000000000000000000000000000000000000000000000000000000000000000000000000000000000000000000000000000000000000000000000000000000000000000000000000000000000000000000000000000000000000000000000000000000000000000000000000000000000000000000000000000000000000000000000000000000000000000000000000000000000000000000000000000000000000000000000000000000000000000000000000000000000000000000000000000000000000000000000000000000000000000000000000000000000000000000000000000000000000000000000000000000000000000000000000000000000000000000000000000000000000000000000000000000000000000000000000000000000000000000000000000000140000000000000000000000000000000000000000000000000000000000000000000000000000000000000000000000000000000000000000000000000000000000000000000000000000000000000054520000000000000000000000000000000000000000000000000000000000000000000000000000000000000000000000000000000000000000000000000000000000000000000000000000000000000000000000000000000000000000000000000000000000000000000000000000000000000000000000000000000000000000000000000000000000000000000000000000000000000000000000000000220000000000000000000000000000000000000000000000000000000000000000000000000000000000000000000000000000000000000000000000000000000000000000000000000000000000000000000000000000000000000000000000000000000000000000000000000000000000000000000000000000000000000000000000000000000000000000000000000000000000000000000000000000000000000000000000000000000000000000000000000000000000000000000000000000000000000000000000000000000000000000000000000000000000000000000000000000000000000000000000000000000000000000000000000000000000000000000000000000000000000000000000000000000000000000000000000000000000000000000000000000000000000000000000000000000000000000000000000000000000000000000000000000000000000000000000000000000000000000000000000000000000000000000000000000000000000000000000000000000000000000000000000000000000000000000000000000000000000000000000000000000000000000000000000000000000000000000000000000000000000000000000000000000000000000000000000000000000000000000000
#0303a1:0012220000000000
#030381:00000056000000000000000000000000
#030341:0000000000120000
#030321:00000026
#0313a1:000000000000000000000000000000000000000000000000000000000000000000000000000000000000000000000000000000000000000000000000000000000000000000000000000000000000000000000000000000000000000000000000000000000000000000000000000000000000000000000000000000000000000000000000000000000000000000000000000000000000000000000000000000000000000000000000000000000000000000000000000000000000000000000000000000000000000000000000000000000000000000000000000000000000000000000000000000000000000000000000140000000000000000000000000000000000000000000000000000000000000000000000000000005452000000000000000000000000000000000000000000000000000000000000000000000000000000000000000000000000000000000000000000525300000000000000000000000000000000000000000000000000000000000000000000000000000053520000000000000000000000000000000000000000000000000000000000000000000000000000000000000000000000000000000000000000005254000000000000000000000000000000000000000000000000000000000000000000000000000000240000000000000000000000000000000000000000000000000000000000000000000000000000000000000000000000000000000000000000000000000000000000000000000000000000000000000000000000000000000000000000000000000000000000000000000000000000000000000000000000000000000000000000000000000000000000000000000000000000000000000000000000000000000000000000000000000000000000000000000000000000000000000000000000000000000000000000000000000000000000000000000000000000000000000000000000000000000000000000000000000000000000000000000000000000000000000000000000000000000000000000000000000000000000000000000000000000000000000000000000000000000000000000000000000000000000000000000000000000000000000000000000000000000000000000000000000000000000000000000000000000000000000000000000000000000000000000000000000000000000000000000000000000000000000000000000000000000000000000000000000000000000000000000000000000000000000000000000000000000000000000000000000000000000000000000000000000000000000000000000000000000000000000000000000000000000000000000000000000000000000000000000000000000000000000000000000000000000000000000000000000000000000000000000000000000000000000000000000000000000000000000000000000000000000000000000000000000000000000000000000000000000000000000000000000000000000000000000000000000000000000000000000000000000000000000000000000000000000000000000000000000000000000000000000000000000000000000000000000000000000000000000000000000000000000000000000000000000000000000000000000000000000000000000000000000000000000000000000000000000000000000000000000000000000000000000000000000000000000000000000000000000000000000000000000000000000000000000000000000000000000000000000000000000000000000000000000000000000000000000000000000000000000000000000000000000000000000000000000000000000000000000000000000000000000000000000000000000000000000000000000000000000000000000000000000000000000000000000000000000000000000000000000000000000000000000000000000000000000000000000000000000000000000000000000000000000000000000000000000000000000000000000000000000000000000000000000000000000000000000000000000000000000000000000000000000000000000000000000000000000000000000000000000000000000000000000000000000000000000000000000000000000000000000000000000000000000000000000000000000000000000000000000000000000000000000000000000000000000000000000000000000000000000000000000000000000000000000000000000000000000000000000000000000000000000000000000000000000000000000000000000000000000000000000000000000000000000000000000000000000000000000000000000000000000000000000000000000000000000000000000000000000000000000000000000000000000000000000000000000000000000000000000000000000000000000000000000000000000000000000000000000000000000000000000000000000000000000000000000000000000000000000000000000000000000000000000000000000000000000000000000000000000000000000000000000000000000000000000000000000000000000000000000000000000000000000000000000000000000000
#032321:00000013000000000000000000000000
#032361:00000000002300000000000000000000
#0323b1:0000001300230000
#032371:0053
#033371:13330000
#0333b1:0033002300000000
#033360:0000001300000000
#033320:0023
#033370:0000000000130000
#0333b0:00000023
#0343b0:00000000000000000000001300002300
#034370:0000000000000000000000000000000000000000000000000053000000000000
#034361:00000000000000000000001300002300
#034321:0000000000000000000000000000000000000000000000000053000000000000
#0363b1:00000013000000000000000000000000
#036371:00000000002300000000000000000000
#036321:0000001300230000
#036361:0053
#037371:0000000000130000
#0373b1:00000000000000000000005300230000
#037360:00000000000000000000000000130000
#037320:0000000000000053
#038320:23
#038370:0013000000000000
#0383b0:00230000
#038360:0000001300000000
#038320:0023
#038370:0000000000130000
#0383b0:00000053
#038380:0000000000000023
#038351:0000000000000013
#039321:53
#039361:0023000000000000
#039351:00000000001300002300000000000000
#040371:0000001200220000
#041321:0000001200220000
#043361:00000014000000000000000000000000
#043321:00000000002400000000000000000000
#0433a0:00000014000000000000000000000000
#043360:00000000002400000000000000000000
#043320:00001424
#043360:0000000000540000
#043361:00001424
#0433a1:0000000000540000
#0443a1:0014
#044321:00000000000000000000002400000000
#044320:0014
#0443a0:00000000000000000000002400000000
#045380:000000000000000000000000000000000000000000000000000000000000000000000000000000000000000000000000000000000000000000000000000000000000000000000000000000000000000000000000000000000000000000000000000000000000000000000000000000000000000000000000160000000000000000000000000000000000000000000000000000000000000000000000000000005651000000000000000000000000000000000000000000000000000000000000000000000000000000000000000000000000000000000000000000000000000000000000000000000000000000000000000000000000000000000000000000000000000055000000000000000000000000000000000000000000000000000000000000000000000000000000000000000000000000000000000000000000000056000000000000000000000000000000000000000000000000000000000000000000000000000000260000000000000000000000000000000000000000000000000000000000000000000000000000000000000000000000000000000000000000000000000000000000000000000000000000000000000000000000000000000000000000000000000000000000000000000000000000000000000000000000000000000000000000000000000000000000000000000000000000000000000000000000000000000000000000000000000000000000000000000000000000000000000000000000000000000000000000000000000000000000000000000000000000000000000000000000000000000000000000000000000000000000000000000000000000000000000000000000000000000000000000000000000000000000000000000000000000000000000000000000000000000000000000000000000000000000000000000000000000000000000000000000000000000000000000000000000000000000000000000000000000000000000000000000000000000000000000000000000000000000000000000000000000000000000000000000000000000000000000000000000000000000000000000000000000000000000000000000000000000000000000000000000000000000000000000000000000000000000000000000000000000000000000000000000000000000000000000000000000000000000000000000000000000000000000000000000000000000000000000000000000000000000000000000000000000000000000000000000000000000000000000000000000000000000000000000000000000000000000000000000000000000000000000000000000000000000000000000000000000000000000000000000000000000000000000000000000000000000000000000000000000000000000000000000000000000000000000000000000000000000000000000000000000000000000000000000000000000000000000000000000000000000000000000000000000000000000000000000000000000000000000000000000000000000000000000000000000000000000000000000000000000000000000000000000000000000000000000000000000000000000000000000000000000000000000000000000000000000000000000000000000000000000000000000000000000000000000000000000000000000000000000000000000000000000000000000000000000000000000000000000000000000000000000000000000000000000000000000000000000000000000000000000000000000000000000000000000000000000000000000000000000000000000000000000000000000000000000000000000000000000000000000000000000000000000000000000000000000000000000000000000000000000000000000000000000000000000000000000000000000000000000000000000000000000000000000000000000000000000000000000000000000000000000000000000000000000000000000000000000000000000000000000000000000000000000000000000000000000000000000000000000000000000000000000000000000000000000000000000000000000000000000000000000000000000000000000000000000000000000000000000000000000000000000000000000000000000000000000000000000000000000000000000000000000000000000000000000000000000000000000000000000000000000000000000000000000000000000000000000000000000000000000000000000000000000000000000000000000000000000000000000000000000000000000000000000000000000000000000000000000000000000000000000000000000000000000000000000000000000000000000000000000000000000000000000000000000000000000000000000000000000000000000000000000000000000000000000000000000000000000000000000000000000000000000000000000000000000000000000000000000000000000000000000000000000000000000000000000000000000000000000000000000000000000000000000000000000000000000000000000000000000000000000000000000000000000000000000000000000
#0453a0:000000000000000000000000000000000000000000000000000000000000000000000000000000000000000000000000000000000000000000000000000000000000000000000000000000000000000000000000000000000000000000000000000000000000000000000000000000000000000000000000000000000000000000000000000000000000000000000000000000000000000000000000000000000000000000000000000000000000000000000000000000000000000000000000000000000000000000000000000000000000000000000000000000000000000000000000000000000000000000000000000000000000000000000000000000000000000000000000000000000000000000000000000000000000000000000000000000000000000000000000000000000000000000000000000000000000005100000000000000000000000000000000000000000000000000000000000000000000000000000000000000000000000000000000000000000000000000000000000000000000000000000000000000000000000000000000000000000000000000000000000000000000000000000000000000000000000000000000000000000000000000000000000000000000000000000000000000000000000000000000000000000000000000000000000000000000000000000000000000000000000000000000000000000000000000000000000000000000000000000000000000000000000000000000000000000000000000000000000000000000000000000000000000000000000000000000000000000000000000000000000000000000000000000000000000000000000000000000000000000000000000000000000000000000000000000000000000000000000000000000000000000000000000000000000000000000000000000000000000000000000000000000000000000000000000000000000000000000000000000000000000000000000000000000000000000000000000000000000000000000000000000000000000000000000000000000000000000000000000000000000000000000000000000000000000000000000000000000000000000000000000000000000000000000000000000000000000000000000000000000000000000000000000000000000000000000000000000000000000000000000000000000000000000000000000000000000000000000000000000000000000000000000000000000000000000000000000000000000000000000000000000000000000000000000000000000000000000000000000000000000000000000000000000000000000000000000000000000000000000000000000000000000000000000000000000000000000000000000000000000000000000000000000000000000000000000000000000000000000000000000000000000000000000000000000000000000000000000000000000000000000000000000000000000000000000000000000000000000000000000000000000000000000000000000000000000000000000000000000000000000000000000000000000000000000000000000000000000000000000000000000000000000000000000000000000000000000000000000000000000000000000000000000000000000000000000000000000000000000000000000000000000000000000000000000000000000000000000000000000000000000000000000000000000000000000000000000000000000000000000000000000000000000000000000000000000000000000000000000000000000000000000000000000000000000000000000000000000000000000000000000000000000000000000000000000000000000000000000000000000000000000000000000000000000000000000000000000000000000000000000000000000000000000000000000000000000000000000000000000000000000000000000000000000000000000000000000000000000000000000000000000000000000000000000000000000000000000000000000000000000000000000000000000000000000000000000000000000000000000000000000000000000000000000000000000000000000000000000000000000000000000000000000000000000000000000000000000000000000000000000000000000000000000000000000000000000000000000000000000000000000000000000000000000000000000000000000000000000000000000000000000000000000000000000000000000000000000000000000000000000000000000000000000000000000000000000000000000000000000000000000000000000000000000000000000000000000000000000000000000000000000000000000000000000000000000000000000000000000000000000000000000000000000000000000000000000000000000000000000000000000000000000000000000000000000000000000000000000000000000000000000000000000000000000000000000000000000000000000000000000000000000000000000000000000000000000000000000000000000000000000000000000000000000000000000000000000000000000000000000
#045321:000000165600000056260000000000000000000000000000000000000000000000000000000000000000000000000000
#045371:000000000000000000000000000000000000000000000000000000000000000000000000000000000000000000000000000000000000000000000000000000000000000000000000000000000000000000000000000000000000000000000000000000000000000000000000000000000000000000000000000000000000000000000000000000000000000000000000000000000000000000000000000000000051000000000000000000000000000000000000000000000000000000000000000000000000000000000000000000000000000000000000000000000000000000000000000000000000000000000000000000000000000000000000000000000000000000000000000000000000000000000000000000000000000000000000000000000000000000000000000000000000000000000000000000000000000000000000000000000000000000000000000000000000000000000000000000000000000000000000000000000000000000000000000000000000000000000000000000000000000000000000000000000000000000000000000000000000000000000000000000000000000000000000000000000000000000000000000000000000000000000000000000000000000000000000000000000000000000000000000000000000000000000000000000000000000000000000000000000000000000000000000000000000000000000000000000000000000000000000000000000000000000000000000000000000000000000000000000000000000000000000000000000000000000000000000000000000000000000000000000000000000000000000000000000000000000000000000000000000000000000000000000000000000000000000000000000000000000000000000000000000000000000000000000000000000000000000000000000000000000000000000000000000000000000000000000000000000000000000000000000000000000000000000000000000000000000000000000000000000000000000000000000000000000000000000000000000000000000000000000000000000000000000000000000000000000000000000000000000000000000000000000000000000000000000000000000000000000000000000000000000000000000000000000000000000000000000000000000000000000000000000000000000000000000000000000000000000000000000000000000000000000000000000000000000000000000000000000000000000000000000000000000000000000000000000000000000000000000000000000000000000000000000000000000000000000000000000000000000000000000000000000000000000000000000000000000000000000000000000000000000000000000000000000000000000000000000000000000000000000000000000000000000000000000000000000000000000000000000000000000000000000000000000000000000000000000000000000000000000000000000000000000000000000000000000000000000000000000000000000000000000000000000000000000000000000000000000000000000000000000000000000000000000000000000000000000000000000000000000000000000000000000000000000000000000000000000000000000000000000000000000000000000000000000000000000000000000000000000000000000000000000000000000000000000000000000000000000000000000000000000000000000000000000000000000000000000000000000000000000000000000000000000000000000000000000000000000000000000000000000000000000000000000000000000000000000000000000000000000000000000000000000000000000000000000000000000000000000000000000000000000000000000000000000000000000000000000000000000000000000000000000000000000000000000000000000000000000000000000000000000000000000000000000000000000000000000000000000000000000000000000000000000000000000000000000000000000000000000000000000000000000000000000000000000000000000000000000000000000000000000000000000000000000000000000000000000000000000000000000000000000000000000000000000000000000000000000000000000000000000000000000000000000000000000000000000000000000000000000000000000000000000000000000000000000000000000000000000000000000000000000000000000000000000000000000000000000000000000000000000000000000000000000000000000000000000000000000000000000000000000000000000000000000000000000000000000000000000000000000000000000000000000000000000000000000000000000000000000000000000000000000000000000000000000000000000000000000000000000000000000000000000000000000000000000000000000000000000000000000000000000000000000000000000000000000000000000000000000000000000000000000000000000000000000000000000000000000000000
#045331:000000000000000000000000005500000000000000000000000000000000000000000000000000000000000000000000000000000000000000000000000000000000000000000000000000000000000000000000000000000000000000000000
#045351:000000000000000000000000000000000000000000000000000000000000000000000000000000000000000000000000000000000000000000000000000000000000000000000000000000000000000000000000000000000000000000000000000000000000000000000000000000000000000000000000000000000000000000000000000000000000000000000000000000000000000000000000000000000000000000000000000000000000000000000000000000000000000000000000000000000000000000000000000000000000000000000000000000000000000000000000000000000000000000000000000000000000000000000000000000000000000000000000000000000000000000000000000000000000000000000000000000000000000000000000000000000000000000000000000000000000005100000000000000000000000000000000000000000000000000000000000000000000000000000000000000000000000000000000000000000000000000000000000000000000000000000000000000000000000000000000000000000000000000000000000000000000000000000000000000000000000000000000000000000000000000000000000000000000000000000000000000000000000000000000000000000000000000000000000000000000000000000000000000000000000000000000000000000000000000000000000000000000000000000000000000000000000000000000000000000000000000000000000000000000000000000000000000000000000000000000000000000000000000000000000000000000000000000000000000000000000000000000000000000000000000000000000000000000000000000000000000000000000000000000000000000000000000000000000000000000000000000000000000000000000000000000000000000000000000000000000000000000000000000000000000000000000000000000000000000000000000000000000000000000000000000000000000000000000000000000000000000000000000000000000000000000000000000000000000000000000000000000000000000000000000000000000000000000000000000000000000000000000000000000000000000000000000000000000000000000000000000000000000000000000000000000000000000000000000000000000000000000000000000000000000000000000000000000000000000000000000000000000000000000000000000000000000000000000000000000000000000000000000000000000000000000000000000000000000000000000000000000000000000000000000000000000000000000000000000000000000000000000000000000000000000000000000000000000000000000000000000000000000000000000000000000000000000000000000000000000000000000000000000000000000000000000000000000000000000000000000000000000000000000000000000000000000000000000000000000000000000000000000000000000000000000000000000000000000000000000000000000000000000000000000000000000000000000000000000000000000000000000000000000000000000000000000000000000000000000000000000000000000000000000000000000000000000000000000000000000000000000000000000000000000000000000000000000000000000000000000000000000000000000000000000000000000000000000000000000000000000000000000000000000000000000000000000000000000000000000000000000000000000000000000000000000000000000000000000000000000000000000000000000000000000000000000000000000000000000000000000000000000000000000000000000000000000000000000000000000000000000000000000000000000000000000000000000000000000000000000000000000000000000000000000000000000000000000000000000000000000000000000000000000000000000000000000000000000000000000000000000000000000000000000000000000000000000000000000000000000000000000000000000000000000000000000000000000000000000000000000000000000000000000000000000000000000000000000000000000000000000000000000000000000000000000000000000000000000000000000000000000000000000000000000000000000000000000000000000000000000000000000000000000000000000000000000000000000000000000000000000000000000000000000000000000000000000000000000000000000000000000000000000000000000000000000000000000000000000000000000000000000000000000000000000000000000000000000000000000000000000000000000000000000000000000000000000000000000000000000000000000000000000000000000000000000000000000000000000000000000000000000000000000000000000000000000000000000000000000000000000000000000000000000000000000000000000000000000000000000000000000000000000
#045321:00001424
#045381:0000000000540000
