This file was generated by Ched 2.7.0.0.
#TITLE ""
#ARTIST ""
#DESIGNER ""
#DIFFICULTY 0
#PLAYLEVEL
#SONGID ""
#WAVE ""
#WAVEOFFSET 0
#JACKET ""
#REQUEST "ticks_per_beat 480"
#00002: 4
#BPM01: 134
#00008: 01
#TIL00: ""
#VOLUME: ""
#HISPEED 00
#MEASUREHS 00
#00318:0014
#00314:00000014
#00312:24
#0031a:24
#00310:41
#00418:14140000
#00414:00001414
#0051a:14140000
#00512:00001414
#00618:14140000
#00614:00001414
#00814:00140014
#0081a:0014
#00918:1414
#00912:00140014
#00910:41
#0101a:1414
#01014:00140014
#01218:14
#01212:00000014
#01214:00140000
#0121a:0014
#02318:0014
#02314:00000014
#0231a:24
#02312:24
#02416:00140014
#02412:0014
#0241a:24
#0241f:21
#02512:00140000
#02518:0014
#02514:00000014
#0251a:24
#02510:41
#0261a:1414
#02612:00140000
#02616:00000014
#02816:00140014
#0281a:0014
#02812:24
#0291a:00140000
#02914:0014
#02918:00000014
#02912:14
#0271a:00000014
#03116:00000014
#03012:1414
#0301a:00140000
#03016:00000014
#03412:14
#03414:00140000
#03416:0014
#03418:00000014
#03714:00140000
#0371a:0014
#03716:00000014
#03718:14
#03516:00000014
#03814:00000014
#03816:0014
#03818:00140000
#0381a:14
#03810:41
#03612:00140014
#03616:0014
#0361a:24
#03318:00140000
#03312:0014
#03316:00000014
#03314:14
#0321a:00140014
#03216:0014
#03212:24
#03210:41
#04312:14
#0431a:00140000
#0441a:14
#04412:00140000
#04512:14
#04516:00140000
#0451a:0014
#04514:00000014
#01318:14
#01312:00000014
#01314:00140000
#0131a:0014
#01418:14
#01412:00000014
#01414:00140000
#0141a:0014
#02218:1414
#02214:00140014
#0161f:11
#01614:0034
#01613:00340000
#01118:24
#01114:0024
#04618:24
#04116:00000028
#01718:0034
#01719:00340000
#0201a:0034
#02019:00340000
#01510:41
#01158:14
#01154:0014
#04658:14
#0255a:14
#0085a:14
#02752:00140000
#0315a:00140000
#0355a:00140000
#03952:00140000
#04156:00000018
#01558:00000014
#02152:00000014
#0073a0:14
#007380:00000000340000340034003400000000
#0083a0:24
#0153a0:14
#015380:00003424
#016320:14
#016330:00340000
#016340:00003424
#0173a0:14
#017390:00340000
#017380:00003424
#018320:14
#018340:00000000000000340000000034000000
#019340:34
#019320:0000003400002400
#020380:14
#020390:00340000
#0203a0:00003424
#021340:14
#021320:0000003400002400
#027320:14240000
#0313a0:14240000
#0353a0:14240000
#039320:14240000
#040380:14
#041380:34
#041360:00000028
#043340:00001424
#044380:00001424
