This file was generated by Ched 2.7.0.0.
#TITLE ""
#ARTIST ""
#DESIGNER ""
#DIFFICULTY 0
#PLAYLEVEL
#SONGID ""
#WAVE ""
#WAVEOFFSET 0
#JACKET ""
#REQUEST "ticks_per_beat 480"
#00002: 4
#BPM01: 130
#00008: 01
#TIL00: ""
#VOLUME: ""
#HISPEED 00
#MEASUREHS 00
#0261f:11
#0261a:14
#05112:14
#0501a:14
#04914:14
#04818:14
#04518:0016
#04312:0016
#04118:0016
#03818:0016
#03812:16
#03718:1616
#03612:2616
#03412:0016
#03418:16
#03312:1616
#03218:2616
#0321f:21
#03210:0041
#03114:14
#03018:14
#02912:14
#0281a:14
#02712:14
#02112:14
#02012:14
#01918:14
#01818:14
#01810:41
#01714:14
#01614:14
#0151a:14
#0141a:14
#01114:0014
#01118:14
#01014:0014
#01018:14
#00912:14
#0081a:14
#00714:14
#00610:41
#02410:41
#04410:41
#01210:41
#001380:14
#002380:0024
#003340:14
#004340:0024
#005380:14
#006380:24
#012380:1424
#013340:1424
#0223a0:14
#023390:24
#024320:14
#025330:24
#035380:1626
#039320:1626
#040380:1636
#041380:26
#042320:1636
#043320:26
#044380:1636
#045380:26
#046320:1636
#047320:26
#052380:14
#0533a0:0024
#054340:14
#055320:0024
