This file was generated by Ched 2.7.0.0.
#TITLE ""
#ARTIST ""
#DESIGNER ""
#DIFFICULTY 0
#PLAYLEVEL
#SONGID ""
#WAVE ""
#WAVEOFFSET 0
#JACKET ""
#REQUEST "ticks_per_beat 480"
#00002: 4
#BPM01: 130
#00008: 01
#TIL00: ""
#VOLUME: ""
#HISPEED 00
#MEASUREHS 00
#00617:0000000054130000
#0061a:0000001400000000
#00619:000000000054000000130000
#00614:00000013
#00616:0000000000000013
#0061b:0000000000000013
#00610:41
#00618:000000000000000000000054000000000000000000000000
#01216:0013000000000000
#01214:00130000
#01215:0000000000000023
#01210:41
#01316:0013000000000000
#01315:00000000000000000000130000000013
#0131b:00000013
#01318:0000000000000013
#01312:00000000000000000000000000130000
#01616:12000012000000000000000000000000
#01618:00001200001200000000120012000000
#01818:2400130000131300
#01815:00000013000013000000000000000000
#0181b:0000001300000000
#01812:00000013
#01810:41
#02012:1313
#02015:0013001300000000
#0201b:00130000000000001300000000000000
#02014:00000013
#02018:0000001300000000
#02019:00000013
#02218:00000013000013000000000000000000
#02212:00000000001300000000000000000000
#02215:00001300000000130000000000000000
#0221b:23000013
#02515:0013001313000000
#02512:13
#0251b:23
#02518:00000023000023002300000000000000
#02818:00000000000000001600001300000000
#02815:0000000000130000
#02812:2300000000000016
#0281b:23
#02918:13000023
#02915:00130000000000000000000000002300
#02912:0026
#0291b:0000000000230000
#03012:0000130013001313
#03017:0000000000000013
#03018:0023000000000000
#0301b:00230000
#0311b:00132300
#03115:00000013001300000000000000000000
#03118:0013001300000000
#03112:00000000000000130000000000000000
#03218:00000013
#0321b:2300002300000013
#03215:00000000000000000000000000130000
#03216:2300002300000000
#03212:00000023000000000000000000000000
#03217:00000023000000000000000000000000
#0321f:21
#03210:0041
#0351a:0014240000000000
#03512:00241400
#03518:00000000000000000000130000130000
#03515:0000000000001313
#03516:1400001400000000
#03818:0013
#03819:0000000000130000
#0381a:00000013
#0381b:0000130000000013
#03916:00130000000000000000000000000000
#03912:0000001300000000
#03915:00000000000000000000001300000000
#0411b:0013000000000000
#04118:0000130000000013
#04115:0000001300001300
#04112:0000000000130000
#04016:13
#0401b:13
#04012:00000000000000130000000000000000
#04017:00000000000000130000000000000000
#04215:1313
#04212:00130000
#0421b:1313
#04218:00130000
#05215:00000000130000130000000013001300
#0521b:0000000000130000
#05218:2313
#05212:23
#05318:0013230000231300
#05312:00000013000000000013000000000000
#05315:00000000000013000000001300000000
#0531b:00000000000000230000000000000000
#0031b:00000000000000130000000000000000
#00318:1300000000000013
#00315:1300000000000013
#00312:00000000000000130000000000000000
#01714:0000000000000014
#0241b:1300001300000000
#02415:0000000000000013
#02418:00130000
#02412:00130000
#02410:41
#04718:0000000012001212
#04716:00000000000012000000120000120000
#0481c:0000001200000000
#0481a:00000013
#04812:0000001200000000
#04813:00000013
#04918:0014000000000000
#04914:0014000000000000
#04912:00000024
#0491a:00000024
#0021b:00000013
#00218:0013
#00212:00000013
#00215:00230000
#01415:00000013
#01418:00000013
#0151b:1300001300000000
#01512:1300001300000000
#01513:0053
#01514:0000000000530000
#01515:00000053
#0151a:0053
#01519:0000000000530000
#01518:00000053
#0191b:00130000000000000000000000000000
#02112:00130000
#0211b:00130000
#02616:00140000000000140000000024000000
#0261f:11
#0261a:24
#02612:0000002400000000
#02716:00000014000000000000000000000000
#02715:00000000000000001300001300000000
#02718:0000000000130000
#0271a:0024000000000000
#0341a:0000000000001424
#03412:0000230000001424
#0341b:00000000002300000000000000000000
#03415:0000002300000000
#03418:00000000000000230000000000000000
#04412:13
#04417:13
#0441b:00000000000000130000000000000000
#04416:00000000000000130000000000000000
#04410:41
#04512:0013000000000000
#04515:0000130000000013
#04518:0000001300001300
#0451b:0000000000130000
#04318:0013000000001300
#04312:0000130000130000
#04315:0000001300000013
#0431b:00130000
#05012:00000013000000000000000013001300
#05017:0000001400001313
#0501b:00130000000000000000130000000000
#05018:000000000000000000130000000000000000000054000000000000000000000000000000000000000000000000000000
#05015:23
#05019:000000000000000000000054000000000000000000000000
#0501a:0054
#05415:1313
#05418:00000000130000130000000013002300
#05412:0000000000130000
#03615:00000013
#03612:2300002300000013
#03618:00000000000000000000000000130000
#03617:2300002300000000
#0361b:00000023000000000000000000000000
#03616:00000023000000000000000000000000
#00714:0000000000140000
#00713:000000000000000054540000
#00712:000000000000000000000000000000000054000000000000
#00719:000000000000000054540000
#00718:000000000000000000000000000000000054000000000000
#0071a:0000000000540000
#00814:000000000000000000000054000000000000130000000000
#00819:00000013
#00817:0000000000000013
#00815:00000013000000005400000000000000
#00816:0000000000130000
#00818:00130000000000000000000000000000
#0081b:00000013000000000000000000000000
#00812:2300001400000013
#00813:000000000054000000000000
#00912:0013
#00918:00000000000000000000130000130013
#00915:0000000000001313
#01016:0014000000000000
#0101a:00140014
#01018:0013
#01015:0000001300130013
#01012:24140014
#01118:13000000000000130013000000000000
#01115:0013001313130000
#01112:00140014
#01116:0000000000000014
#0111a:00140014
#03315:00001300000000130000130013000000
#03318:00000013000013000000001300000000
#0331b:00000000000000000000000000130000
#03312:00130000
#03718:00001300000000130000130000000000
#0371b:00000000130000000000000000130000
#03715:00000013000000002300000000000000
#03712:00000000000013000000002300130000
#00513:0000000000130000000000000000000000000000000000000000000000000000
#00512:13
#0051a:0000000000130000000000000000000000000000000000000000000000000000
#0051b:13
#00515:00000013
#00518:00000013
#04618:1313
#0461b:0000130000000023
#04612:1313
#04615:0000130000000023
#05515:0023232323000000
#05512:00000000000000000000002400000000
#0551a:00000000000000000000002400000000
#05518:00000000000000000023000000000000
#0011b:2300000000002323
#00112:0000002300000000
#00115:23000000000000000000000000230000
#00118:0000002300000000
#02312:23002323
#02318:00002300000000230000230000000000
#02315:00000023000023000000000000000000
#0231b:00000000002300000000000000000000
#01255:0000000000000013
#01858:14000053
#01852:00000013
#0185b:0000001300000000
#01855:0000005300000000
#02555:0023
#02558:0023
#02858:0046
#02852:1300000000000036
#0285b:13
#03057:0000000000000013
#03052:0000000000000013
#0305b:00530000
#0385b:0000000000000013
#03856:0000000000000013
#03858:13
#03855:13
#04056:5300000000000013
#0405b:5300000000000013
#04057:00000000000000230000000000000000
#04052:00000000000000230000000000000000
#04255:6363
#04252:0000230000000013
#04258:0000000000000013
#05358:00000053
#00355:6300000000000053
#00358:5300000000000053
#0035b:00000000000000230000000000000000
#00352:00000000000000230000000000000000
#02156:00000012
#02158:00000012
#0215b:00530000
#02152:00530000
#0225b:13000053
#0485c:0000002200000000
#0485a:00000063
#04852:0000002200000000
#04853:00000053
#04758:0000000000000052
#04756:00000000000000000000000000620000
#04958:0024000000000000
#04954:0024000000000000
#04952:00000034
#0495a:00000044
#0025b:00000023
#00258:0053
#00252:00000023
#00255:00530000
#01455:00000053
#01458:00000053
#01552:23
#0155b:23
#0195b:00230000000000000000000013000000
#01952:00000013
#02058:0000005300000000
#0205b:0023
#02055:0000006300000000
#02052:0023
#02458:00530000
#0245b:1300002300000000
#03556:2400002400000000
#0355a:00640000
#03555:0000000000000053
#03552:00140000
#03452:0000000000000064
#0345a:0000000000000014
#03457:13
#04452:6300000000000013
#04457:6300000000000013
#0445b:00000000000000230000000000000000
#04456:00000000000000230000000000000000
#05057:0000000000000053
#05052:0000000000000053
#05252:13
#05258:1353
#0525b:0000000000230000
#05255:0000000000000063
#0545b:13
#05455:1363
#05452:0000000000230000
#05458:0000000000000053
#0325b:1300005300000013
#03256:1300005300000000
#03652:1300006300000013
#03657:1300006300000000
#05552:00000000000000000000003400000000
#0555a:00000000000000000000004400000000
#00958:0000000000130000
#0105a:00140014
#01052:14
#0115a:00140014
#02758:0000000000630000
#02755:00000000000000000000006300000000
#00656:0000000000000053
#00654:14
#00658:14
#00857:0000000000000063
#01352:0000003300000000
#0335b:00000000000000000000000000630000
#03352:00130000
#0375b:00000000130000000000000000630000
#03752:00000000000000000000000000530000
#00753:00000044
#00759:00000044
#00553:0000000000530000000000000000000000000000000000000000000000000000
#00552:23
#0055a:0000000000630000000000000000000000000000000000000000000000000000
#0055b:23
#00555:00000023
#00558:00000023
#04658:5353
#0465b:0000230000000013
#04655:0000000000000013
#02352:00000053
#0013b0:0000000000000013
#0023b0:00230000
#002351:00130000
#002321:00000053
#003351:3300000000000033
#003321:00000000000000530000000000000000
#004321:00000000005300003300000000000000
#005321:53
#005331:0000000000530000000000000000000000000000000000000000000000000000
#005351:00005353
#006341:24
#002380:0013
#0023b0:00000053
#003380:3300000000000033
#0033b0:00000000000000530000000000000000
#0043b0:00000000005300003300000000000000
#0053b0:53
#0053a0:0000000000530000000000000000000000000000000000000000000000000000
#005380:00005353
#006380:24
#006320:0000000013230000
#006360:0000000000000013
#007320:0023
#007381:0013332300000000
#0073a1:00000033000000000000000000000000
#0073a1:0000000014240000
#0083b1:0000000013230000
#008371:0000000000000013
#0093b1:0023
#009350:0013332300000000
#009330:00000033000000000000000000000000
#0123b1:1300002300000000
#012320:0000001300230000
#012381:0000000000132300
#012350:0000000000001323
#0123b1:0000000000000013
#0133b1:00230000
#013360:00130000
#013340:00000000003300000000000000000000
#013320:0000002300000000
#013381:0000001300230000
#014381:13000023000000000000000000000000
#014350:00000013000023000000000000000000
#014381:0000001300230000
#014350:0000000000133300
#015320:53
#015350:00230000
#014381:00000013
#0153b1:53
#015381:00230000
#016361:0000001200000000
#017361:0052000000000000
#017321:00000022
#016380:0000000000000012
#017380:0052000000000000
#0173c0:00000022
#018350:0000001300000000
#018320:0000000000230000
#018380:00000013
#0193b0:00530000000000000000000000000000
#019380:0000002300000000
#019351:0000001300000000
#019321:00000000000000530000000023000000
#019380:0013
#0193b0:00000000000000000053000023000000
#020380:00000013000033000000230000000000
#0203b0:0053
#020351:0000001300230000
#020321:0053
#020321:0000000000000013
#021321:0023000000000000
#0203b0:0000000000000013
#0213b0:0023000000000000
#021320:00130000
#021360:00000022
#0213b1:00130000
#021381:00000022
#0223b1:0000000013230000
#022350:0000000000132300
#0223b1:00000013
#023381:23
#023321:0000000013230000
#023380:0000000000132300
#023321:00000013
#024351:23
#024381:00132300
#0243b1:0000005300000000
#024350:00000000000000001300002300000000
#024381:00000000000000000000001300002300
#025381:0013
#0253b1:00000023
#025350:0013
#025320:00000023
#0263a0:0014240000000000
#026320:0000000014240000
#026320:0000000000000014
#027320:24
#0263a1:0000000000000014
#0273a1:24
#0273a1:0000142400000000
#027381:0000000000130000
#0283b1:23
#027350:00000000000000000000001300000000
#028320:23
#028350:00130000
#028320:0026
#029380:00132600
#029350:0000000000000013
#030350:0023000000000000
#0303b0:00130000
#030370:00000023
#032360:0000001300000000
#032320:0000000000230000
#0323b1:0000001300000000
#032371:0000000000230000
#0333b1:0000000013230000
#0333b1:00000000000000000000000000130000
#034371:23
#034381:00000000000000130000230000000000
#034321:0000000000000014
#035361:54
#035321:0024000000000000
#0353a1:00142400
#035361:0000005400000000
#035351:0000000000000013
#036321:23
#036371:0000001300000000
#0363b1:0000000000230000
#036320:0000001300000000
#036360:0000000000230000
#037320:00000000000000000000001300330000
#038350:23
#0373b1:00000000000000000000000000130000
#038381:23
#038361:0000130000000023
#038321:0033
#0393b1:0013000000000000
#039381:0000002300000000
#039381:00000000000000001300002300000000
#0393b1:00000013
#0403b1:3300000000000023
#040371:00000000000000530000000000000000
#040360:1300000000000023
#040320:00000000000000530000000000000000
#041380:00000000000000130000230000000000
#042350:1333
#042320:0000330000003323
#042381:0000000000001323
#043381:00000000000000130000230000000000
#044321:1300000000000023
#044361:00000000000000530000000000000000
#044370:1300000000000023
#0443b0:00000000000000530000000000000000
#045350:00000000000000130000230000000000
#046380:1333
#0463b0:0000330000003323
#046351:0000000000001323
#047361:00000000000000000000000000120000
#048321:0000005200000000
#048331:00000053
#049341:0054000000000000
#049321:00000024
#047380:0000000000000012
#0483c0:0000005200000000
#0483a0:00000053
#049380:0054000000000000
#0493a0:00000024
#050350:0000000013230000
#050370:0000000000000013
#0513b0:0023
#050321:0000000000000013
#051361:0023
#051321:00000000000000000000135353535353
#051331:0000000000000000000000000000000000000000005300530053005300530053
#052321:23
#051380:00000000000000000000135353535353
#051370:0000000000000000000000000000000000000000005300530053005300530053
#052380:23
#052380:00000000130000230000000000000000
#052380:0000000013003323
#0523b0:0000000000530000
#052351:0000000000000013
#053321:0023000000000000
#053381:00000013
#0543b1:23
#054351:00000000130000230000000000000000
#054351:0000000013003323
#054321:0000000000530000
#054380:0000000000000013
#0553b0:0023
#0069a0:0000001400000000
#006970:0024
#007940:0000000000140000
#007920:000000000000000000000000000000000054000000000000
#007930:00000024
#0079a1:0000000000140000
#007981:000000000000000000000000000000000054000000000000
#007991:00000024
#008921:0000001400000000
#008951:0024
#015921:0000001300000000
#015951:00000023
#0159b0:0000001300000000
#015980:00000023
#050970:0000001400000000
#0509a0:0024
