This file was generated by Ched 2.7.0.0.
#TITLE ""
#ARTIST ""
#DESIGNER ""
#DIFFICULTY 0
#PLAYLEVEL
#SONGID ""
#WAVE ""
#WAVEOFFSET 0
#JACKET ""
#REQUEST "ticks_per_beat 480"
#00002: 4
#BPM01: 130
#00008: 01
#TIL00: ""
#VOLUME: ""
#HISPEED 00
#MEASUREHS 00
#01218:0013000000000013
#01215:00130013
#0121b:1300000000130000
#01212:0000001300000000
#01210:41
#02015:1313001300001300
#02018:00130013000000000000000000001300
#02312:23000013000000000000000000000000
#02318:0013000000130000
#02315:00000000003333330000000000000000
#02215:0013000000130000
#0221b:23000013000000000000000000000000
#02218:00000000003333330000000013000000
#03812:0013
#03815:0000130000130000
#03818:00000013
#0381b:0000130000000013
#03915:00130000000000000000000000000000
#03918:0013000000000000
#03912:0000001400001400
#0391a:0014
#04112:0013000000130000
#04115:0000001300001300
#04118:00000000000000130000000000001300
#0411b:00130000
#0401a:14
#04016:00000000000000140000000000000000
#04212:13
#04215:00000000000000130000000000000000
#05315:00000013000013000000000000000000
#05318:00001300000000000033333300000000
#0531b:00000000230000230000000000000000
#04718:00000000000000001200000012323200
#04716:0000001200120000
#02418:00130000
#02410:41
#02618:0000002400000014
#0261f:11
#02614:24000024
#02718:00000000000000001300001300000000
#02715:0000000000130000
#02714:0024000000000000
#0031b:00130000
#00312:0000000013000023
#00315:0000000000130000
#00318:00000013
#00413:00000000000000000000001300000000
#0041a:00000000000000000000001300000000
#0041b:0013
#00412:0013
#00419:00000033
#00414:00000033
#00712:00000013
#00718:00000013
#01015:0013
#01018:0000001300130013
#0101a:24
#01012:00240024
#01118:0013001300130000
#01115:1313
#01112:00240024
#01312:00130000
#01318:00000000001300000000000000000000
#0141b:00000033000013000000000000000000
#01418:1300000000330000
#01415:00000013
#0211b:00130000
#02112:00130000
#03515:00130000000000000000000013001300
#03512:00130000
#03518:00130000000000000000000000130000
#0351b:00130000
#03513:00000033000000000000000000000000
#03514:0033000000000000
#0351a:00000033000000000000000000000000
#03519:0033000000000000
#04512:0013000000130000
#0451b:00130000
#04515:0000001300001300
#04518:00000000000000130000000000001300
#0441a:14
#04416:00000000000000140000000000000000
#04410:41
#0431b:0013000000130000
#04312:00130000
#04318:0000001300001300
#04315:00000000000000130000000000001300
#04612:13
#0461b:13
#04615:0000000000000023
#04618:0000000000000023
#05215:0000130000000013
#0521b:0013
#05218:23
#05412:00131300
#0541b:00131300
#05415:1300000000000023
#05418:0000000000000023
#00618:00005313
#00615:0000000000130013
#00610:41
#0061a:000000000053000000000000
#00619:000000000000000000000053000000000000000000000000
#0061b:0000005300000000
#00915:0000000000130000
#00815:00130000000000005300000013000000
#00818:00000013000000000000130000001300
#0081b:23
#00813:000000000053000000000000
#00814:000000000000000000000053000000000000000000000000
#00812:0000005300000000
#05018:00130000000000005300000013000000
#05015:00000013000000000000130000001300
#05012:23
#0501a:000000000053000000000000
#05019:000000000000000000000053000000000000000000000000
#0501b:0000005300000000
#02515:0013
#02518:2323
#03016:0000000000140000
#03018:0000000000000014
#0301a:00240000
#02815:0013
#02818:0000000000000013
#0281b:23
#01512:13
#0151b:0000005300000000
#01518:00000053
#01519:0000000000530000
#0151a:0053
#01715:0000000000000013
#01818:0000000000130000
#01815:00000013
#0181a:24
#01816:00000024000000000000000000000000
#01812:0000002400000000
#01810:41
#01918:0000001300000000
#01915:0013
#0191b:00000013
#01912:00000013
#0341b:0000230000001323
#03412:0000230000001323
#03414:0000003300000000
#03413:00000000003300000000000000000000
#03415:00000000000000330000000000000000
#03419:0000003300000000
#0341a:00000000003300000000000000000000
#03418:00000000000000330000000000000000
#03218:00000013
#03215:00000000000024000000000000130000
#0321a:00000024000000000000000000000000
#03212:24
#0321b:0000000000000023
#0321f:21
#03210:0041
#03315:00001300000000130000000000000000
#03318:00000013000013000000000000000000
#03317:0000000000130000
#03312:00230000
#03319:00000000000000000000003333000000
#03718:00001300000000130000130000000000
#03715:00000013000013000000000000130000
#03712:0023
#0371b:00230000
#03615:00000013
#03618:00000000000000000000000000130000
#03617:0000002400000000
#03612:00000024000000000000000000002300
#0361a:24
#0291a:0000000000240000
#02916:00000024
#02912:0000000000000024
#00114:2400002400000000
#00118:00000024000000000000000000000000
#0011a:00000000000000000000000000330000
#04914:0000002a
#05512:00000000000000000000002400000000
#0551a:00000000000000000000002400000000
#05518:0024
#05514:00000000000000000024000000000000
#0021a:00000033000000000000000000000000
#00213:00000000000000330000000000000000
#0405a:5400000000000014
#04056:00000000000000240000000000000000
#04252:6300000000000013
#04255:00000000000000230000000000000000
#03452:0000530000000063
#0345b:1300630000000053
#05258:13
#0525b:0053
#0105a:14
#02758:00000000000000000000006300000000
#0285b:13
#02855:0053
#02852:00000000000000000000001300000000
#02858:0000000000000063
#02558:0023
#02555:0023
#00452:0023
#0045b:0023
#0045a:00000000000000000000005300000000
#00453:00000000000000000000005300000000
#00655:1300000000000063
#00658:13
#0145b:0000005300000000
#01458:63
#01455:00000063
#02055:0000005300000000
#02058:0000000000000053
#0215b:00630000
#02158:00000013
#02152:00530000
#02155:00000013
#02352:00000053000000000000000000000000
#0225b:00000063000000000000000000000000
#02452:13
#03555:00230000000000000000000000000000
#03552:00530000
#03558:00230000000000001400000000000000
#0355b:00630000
#03554:0014
#0445a:5400000000000014
#04456:00000000000000240000000000000000
#04652:63
#0465b:53
#04655:0000000000000013
#04658:0000000000000013
#0535b:00000000000000530000000000000000
#05358:00000013
#0545b:0063
#05452:0063
#05455:1300000000000053
#05458:0000000000000053
#05552:00000000000000000000001400000000
#0555a:00000000000000000000001400000000
#04758:00000022
#04954:0000001a
#00955:0000000000130000
#00858:0000000000000053
#01258:0000000000000013
#05055:0000000000000063
#03056:0000000000240000
#03058:0000000000000064
#0305a:00540000
#02952:0000000000000064
#0295b:00130000000000000000000000000000
#0315a:0014
#0395a:0054
#03952:00000064
#01552:23
#01855:00000053
#03357:0000000000630000
#03255:0000006400000000
#03252:14
#03755:00000000000000000000000000630000
#03657:0000005400000000
#0365a:14
#03852:13
#001380:00000013
#0013a0:00000000000000000000000000330000
#0013b0:0000000000000033
#0023b0:0033000000000000
#0023a0:00000033000000000000000000000000
#002380:00230000
#002350:00000000000013000000000000330000
#002330:00000000000000330000003300000000
#002320:0000000033330000
#002340:00000033
#003350:23
#003320:0000000000000013
#004320:0000003333000000
#004330:00000000000000000000005300000000
#004340:00000033
#005350:33
#006350:23
#0033b1:0000000000000013
#0043b1:0000003333000000
#0043a1:00000000000000000000005300000000
#004391:00000033
#005381:33
#006381:23
#006351:0000000000000013
#007321:0023
#008381:0000000000000013
#0093b1:0023
#013321:0000001300000000
#014351:23
#014380:1300000000332300
#0143b0:00000033000033000000000000000000
#014351:00000013
#015321:53
#015351:00230000
#016361:12003232003232000000320032002200
#016380:0000000000000012
#017380:0052000000000000
#0173c0:00000022
#018350:00000013
#019320:00230000
#020350:0000001300000000
#020320:0000000000230000
#020380:0000000000000013
#0213b0:0023000000000000
#0213b0:00130000
#021380:00000023
#021321:00130000
#021351:00000023
#0223b1:00000013000000000000000000000000
#022381:00000000003333332300000000000000
#023321:00000013000000000000000000000000
#023351:00000000003333332300000000000000
#023351:00000013
#024321:23
#024351:0000000013000023
#024321:00000000000000000000003300000000
#025351:00001333000033003300000000000000
#025321:00000023
#025380:0013
#0253b0:00000023
#026340:14
#026330:00340000000000000000000000000000
#026320:0034240000000000
#026380:0000001400000000
#026390:00000000000000340000000000000000
#0263a0:0000000034240000
#027340:0014000000000000
#027330:00000034000000000000000000000000
#027320:0000342400000000
#027380:00000000000000000000001300000000
#0283b0:23
#028350:00133300
#028320:00000000000000000000332300000000
#028380:0000000000000013
#0293b0:33230000000000000000000000000000
#029350:00132300
#029320:0000000000000014
#030350:0024000000000000
#0303a0:00140000
#030360:0000000000540000
#030380:0000000000000054
#0313a0:0054000024000000
#032350:0000001400000000
#032320:0000000000240000
#0333b0:00000000000000001300000000330000
#033370:0000000000330000
#033390:00000000000000000000003333000000
#0343b0:23
#034320:00130000
#034330:00000000003300000000000000000000
#034340:0000003300000000
#034350:00000000000000330000230000000000
#0343b1:00130000
#0343a1:00000000003300000000000000000000
#034391:0000003300000000
#034381:00000000000000330000230000000000
#034321:0000000000000013
#035351:00530000000000000000000000000000
#035341:0033000024000000
#035331:00000033000000000000000000000000
#035321:00330000
#0343b0:0000000000000013
#035380:00530000000000002400000000000000
#035390:0033000000000000
#0353a0:00000033000000000000000000000000
#0353b0:00330000
#036370:0000001400000000
#0363a0:0000000000240000
#037350:00000000000000000000001300330000
#038320:23
#0393a0:0014
#039370:00000024
#039321:00000014
#040351:24
#0403a0:1400000000000024
#040360:00000000000000540000000000000000
#042320:1300000000000023
#042350:00000000000000530000000000000000
#0443a0:1400000000000024
#044360:00000000000000540000000000000000
#046320:13
#046350:0000000000000023
#0463b1:13
#046381:0000000000000023
#047381:00000000000000000000000012323200
#049341:0000002a
#050351:0000000000000013
#051321:0023
#051381:00000000000000000000135353535353
#051371:0000000000000000000000000000000000000000005300530053005300530053
#052381:23
#0523b1:0013
#052381:00000023
#0533b1:00000000000000130000000000000000
#053381:00000000000000000033333323000000
#0543b1:0013
#054381:00000023
#054320:0013
#054350:00000023
#054350:0000000000000013
#055320:0000002400000000
#054381:0000000000000013
#0553a1:0000002400000000
#0069b0:0000001300000000
#006980:0023
#008920:0000001300000000
#008950:0023
#0159b0:0000001300000000
#015980:00000023
#0509b0:0000001300000000
#050980:0023
