This file was generated by Ched 2.7.0.0.
#TITLE ""
#ARTIST ""
#DESIGNER ""
#DIFFICULTY 0
#PLAYLEVEL
#SONGID ""
#WAVE ""
#WAVEOFFSET 0
#JACKET ""
#REQUEST "ticks_per_beat 480"
#00002: 4
#BPM01: 130
#00008: 01
#TIL00: ""
#VOLUME: ""
#HISPEED 00
#MEASUREHS 00
#00617:00000013000000000000000000000000
#00612:00140013000000000000130013000000
#0061b:0000000000001313
#00615:000000000000000000130013000000000000000000000000
#00618:000000000013130000000000
#00616:1400000000000013
#0061a:24
#00610:41
#00915:00001300530000000000130000130013
#00918:0000000000005313
#00912:00000053000000001300000013000000
#0091b:0000000000130000
#00919:000000000000000000000000000000000053000000000000
#0091a:000053
#01317:0013005300000000
#01312:00001300000053000000130000000013
#0131b:00130013
#01315:00000000000000000000000000130000
#01316:00130000
#01318:0000000000000013
#01319:00000000005300000000000000000000
#01314:00000000005300000000000000000000
#0201b:13
#02015:00130000000000000000000000000000
#02014:00000012
#0201a:00000012
#02012:1300001200000022
#02016:0012
#0201c:0000001200000022
#02018:0013000012000000
#0221a:00000000001200000000000000000000
#02218:00000012000012000000000016000000
#02216:24000000000000120000000000000000
#02214:0012000000000000
#02512:13001662
#02514:00001414000000000000000000000000
#02513:0000001500000000
#0251b:23
#02518:00002424000025002600000000000000
#0251c:00000052
#0281b:00000000130000000000131300000000
#02812:23000000001300000000000013000000
#02816:23000000130000000000131300000000
#02818:0000000016000016
#0291b:13130000000013000000000000000000
#02917:00130000
#02914:00000000000000000000001400000000
#02916:13130000000000000000240000002800
#02912:0000000024002424
#0291a:00000024
#03012:0000230000002314
#0301a:0000000014000014
#03014:0000001300130000
#0301b:0023000000000000
#03016:00242300
#0311b:00130000
#03118:000000000000000016000000000000130000000000000000000000000000000000000000000000000000000000000000
#03115:0000001326000000
#03112:000000000000160000001600000000000000000000130000000000000000000000000000000000000000000000000000
#03215:00000000000000000000000000130000
#03218:2600000000001316
#03216:0000001300000000000000000000000000000000000000000000000000000000
#0321b:0000000000000000001300000000000000000000000000000000000000000000
#03212:2300001300000013
#03217:00000023000000000000000000000000
#0321f:21
#03210:0041
#03315:00000013000013000000001300000000
#03318:00001300160000130000130013000000
#03312:00130000
#03316:0013
#0331b:0013
#03518:16001600260000000000000000130013
#03512:0000001c260016001600000016001600
#0351a:0000000000140000
#03515:0036363600000000003636360036363600000000000000000000000000000000
#03816:00000000120000000000001200000000
#03818:0000120000121200
#0381a:0000000000000014
#03812:0000001200000014
#0381c:0000001200000000
#03914:000000140000000000000000000000000000000000000000000000000000000012000000000000000000140000000000
#03918:000000000000140000000000000000000000000000000000000000000000000000001200000000140000000000000000
#0391a:0000140014120000
#03912:0000281428000000
#03916:0000002800001200
#0411b:0013130013001300
#04118:0000001300130000
#04112:13130013
#04115:00000000000000130013000000001600
#05217:0000130000130000
#05212:26130000
#05216:0000000000001313
#0521b:00000000000000131300000000001300
#05218:26
#05315:00000013000000000013000013000000
#05318:00001300000013000000001300000000
#0531b:00000000230000230000230000001300
#05312:00000000230000230000230000001300
#01716:00000000000000001200000000000000000000000000000000000000000000000012000000000000000000000000000000000000000000001300000000000000
#01718:00000000000000001200000000000000000000000000000000000000000000000012000000000000000000000000000000000000000000000000000000000000
#01719:0000000000000000000000120000000000000000000000000000000000000000
#01715:0000000000000000000000120000000000000000000000000000000000000000
#01717:00000000000000000000000000000000000000000000000000000000000000000000000000000000000000000000000000000000000000000000000000000000000000000000000000000000000000000000000000000000000000000000000000000000000000000000000000000000000000000000000012120000000000000000000000000000000000000000000000000000000000000000000000000000000000000000000000000000000000000000000000000000000000000000000000000000000000000000000000000000000000000000000000000000000000000000000000000000000000000000000000000000000000000000000000000000000000000000000000000000000000000000000000000000000000000000000000000000000000000000000000000000000000000000000000000000000000000000000000000000000000000000000000000000000000000000000000000000000000000000000000000000000000000000000000000000000000000000000000000000000000000000000000000000000000000000000000000000000000000000000000000000000000000000000000000000000000000000000000000000000000000000000000000000000000000000000000000000000000000000000000000000000000000000000000000000000000000000000000000000000000000000000000000000000000000000000000000000000000000000000000000000000000000000000000000000000000000000000000000000000000000000000000000000000000000000000000000000000000000000000000000000000000000000000000000000000000000000000000000000000000000000000000000000
#0271b:00000000000000000000131300000000
#02716:0028140000000000
#02712:00000014000000000000000000000000
#02416:1400000012000014
#02418:00000000120000000000001200000000
#0241c:0000001200000000
#02410:41
#02616:0014002814000014
#0261a:00140000000000000000000000001400
#02612:28000000000000140000000028000000
#0261f:11
#03417:00000000000000000000001300000000
#03412:00000000000000230000130013002600
#0341b:00000000230000230000000000000000
#03418:00000000002300000000000000002600
#03415:0000000000000000000000002300000000000000000000000000000000363636
#04515:0000000000000016
#04512:00000000000000130000000013000000
#04516:13
#04517:0013131300000000
#0451b:00230023
#04312:0013130013001300
#04315:00000000000013000000130000130013
#04318:00000000000000130013000000001300
#0431b:13130013
#00112:1200001200000000
#00116:00000012000000000000000000000000
#00118:2200002200001212
#00114:00000000000000000000000000120000
#0011c:00000022000000000000000000000000
#00216:00001200120000000000005200000000
#0021a:00000012000000000000000000000000
#0021c:0000001200000000
#00218:00000000000000120000120000000000
#00214:00000052
#00212:00000000000000000000000000520000
#00718:000000130000530000000000000000001300160000000000
#00715:000000000000000000000000000000130013000000000000
#0071b:00000053000000000000000000000000
#0081b:00000013000000000000130013000000
#0081a:00140000000000000000000000000000
#00812:2400000000001313
#00816:14000013000000000000000000000000
#00817:0000000000000013
#00818:000000000000000000130013000000000000000000000000
#00815:000000000013130000000000
#01216:00000013
#0121b:13
#01219:0000000013000000000000000000000000000000005300000000000023000000
#01217:00000000000000000000000000000000130000000000000000000000000000000000000000000000005300000000000000000000000000000000000000000000
#01210:41
#01214:00000000000000000000000000000000000000000000000000000000000000000000000000000000000000000000000000530000000000000000000000000000
#01212:0000000000000000000000000000000000000000000000000053000000000000
#01215:0000000000530000
#01817:00000013000013000000000000000000
#0181a:24000014
#01816:1300000000131300
#01812:000000000000000000000000130000000000140000000000000000000000000000000000000000000000001300000000
#01810:41
#02118:00000000000000000000000000130000
#02115:0000000000000013
#02112:00001200120000000000000000000013
#0211b:00000013
#0211c:0012120000000000
#04016:0013001300130013
#04018:16
#04012:23535353
#04014:00000053000000530000005300000000
#00316:0000120000120012
#00314:0012
#00318:0000220000220022
#0031a:0022
#00312:52
#0041c:0012000000000000
#00416:0000001232000000
#00412:0012000000000000
#00418:0000001232000000
#01614:0012000000000000
#01618:00000012000000000000000012000000
#0161a:00000000001200000000120000000000
#0161c:1212
#01612:1200000012120000
#01616:0000001200000000
#0371b:00000000130000002300000000130000
#03718:00000013000013000000000000000000
#03715:00001300000000130000000000000000
#03712:00000000160000001300002300000000
#03717:0000000000130000
#03716:000000000000000000000000000000000000000000000000000000000000000000000000000000000000000000000000000000000000000000000000000000000000000000000000000000000000000000000000000000000000000000000000000000000000000000000000000000000000000000000000000000000000000000000000000000000000000000000000000000000000000000000000000000000000000000000000000000000000000000000000000000000000000000000000000000000000000000000000000000000000000000000000000000000000000000000000000000000000000000000000000000000000000000000000000000000000000000000000000000000000000000000000000000000000000000000000000000000000000000000000000000000000000000000000000000000000000000000000000000000000000000000000000000000000000000000000000000000000000000000000000000000000000000000000000000000000000000000000000000000000000000000000000000000000000000000000000000000000000000000000000000000000000000000000000000000000000000000000000000000000000000000000000000000000000000000000000000000000000000000000000000000000000000000000000000000000000000000000000000000000000000000000000000000000000000000000000000000000000000000000000000000000000000000000000000000000000000000000000000000000000000000000000000000000000000000000000000000000000000000000000000000000000000000000000000000000000000000000000000000000000000000000000000000000000000000000000000000000000000000000000000000000000000000000000000000000000000000000000000000000000000000000000000000000000000000000000000000000000000000000000000000000000000000000000000000000000000000000000000000000000000000000000000000000000000000000000000000000000000000000000000000000000000000000000000000000000000000000000000000000000000000000000000000000000000000000000000000000000000000000000000000000000000000000000000000000000000000000000000000000000000000000000000000000000000000000000000000000000000000000000000000000000000000000000000000000000000000000000000000000000000000000000000000000000000000000000000000000000000000000000000000000000000000000000000000000000000000000000000000000000000000000000000000000000000000000000000000000000000000000000000000000000000000000000000000000000000000000000000000000000000000000000000000000000000000000000000000000000000000000000000000000000000000000000000000000000000000000000000000000000000000000000000000000000000000000000000000000000000000000000000000000000000000000000000000000000000000000000000000000000000000000000000000000000000000000000000000000000000000000000000000000000000000000000000000000000000000000000000000000000000000000000000000000000000000000000000000000000000000000000000000000000000000000000000000000000000000000000000000000000000000000000000000000000000000000000000000000000000000000000000000000000000000000000000000000000000000000000000000000000000000000000000000000000000000000000000000000000000000000000000000000000000000000000000000000000000000000000000000000000000000000000000000000000000000000000000000000000000000000000000000000000000000000000000000000000000000000000000000000000000000000000000000000000000000000000000000000000000000000000000000000000000000000000000000000000000000000000000000000000000000000000000000000000000000000000000000000000000000000000000000000000000000000000000000000000000000000000000000000000000000000000000000000000000000000000000000000000000000000000000000000000000000000000000000000000000000000000000000000000000000000000000000000000000000000000000000000000000000000000000000000000000000000000000000000000000000000000000000000000000000000000000000000000000000000000000000000000000000000000000000000000000000000000000000000000000000000000000000000000000000000000000000000000000000000000000000000000000000000000000000000000000000000000000000000000000000000000000000000000000000000000000000000000000000000000000000000000000000000000000000000000000000000000000000000000000000000000000000000000000000000000000000000000000000000000000000000000000000074
#04217:0013001300130013
#0421b:13535353
#04212:16
#04219:00000053000000530000005300000000
#0441b:13231323
#04416:00130023
#04412:23001300000000130000130000001300
#04417:00000013000013000000001300001300
#04410:41
#01913:13000000000000520000000000000000
#01917:0000001300000000
#01916:00520014
#01915:00000000005200000000000000000000
#01914:0000005200000000
#01912:0052
#01012:13130013
#01016:00141414
#0101b:0013
#0101a:24
#01017:0022002200220022
#01116:00141414
#0111b:13130013
#01112:13000000000000140014000000000000
#01117:0022002200220022
#03618:00000000000000000000000000130000
#03612:2600000000000000001300000000000000000000000000000000000016000000
#03615:00000013
#0361b:2300001300000013
#03617:0000001300000000000000000000000000000000000000000000000000000000
#03616:00000023000000000000000000000000
#04612:130000000000000000000000000000000000000000000000000000000000000023000000000000000000000000000000000000000000000000000000000000001300000000000000000000000000000000000000000000000000000000000000230000000000000000000000000000002c7c0000000000000000000000000000
#04617:00130023
#0461b:13001300000000130000130000000000
#04616:00000013000013000000001300000000
#04812:260000000000000000130000000000000000000000001400000000000000130000000000000000000000130000000000
#04816:000000000000000000001400000000000000140000140000
#0481b:13000013
#0481a:0000001400000000
#04818:00130013000000000000000000000000
#04916:000000130000530000000000000000005300000000000000
#0491b:00000013
#04915:0000000000000014
#04913:00000053000000000000000000000000
#04914:000000000000000000000000000000000053000000000000
#04912:00000053
#04918:0000000000530000
#0501b:00000013000000000000130000001300
#05016:000000000000000000001400000000000000140000140000
#05012:1300001400001300
#0501a:000000000000000000000014000000000000000000000000
#05015:00130013000000000000000000000000
#05017:27
#05117:0013530013000000
#0511a:00000053000000000000000000000000
#05416:0000130000130000
#0541b:00130000
#05412:00000000000000131300000013000000
#05417:0000000000001325
#05512:00001800170016001514001300000000
#0551a:0024000000000000
#05518:0000002600000000
#05519:00250000
#05517:0027
#05515:00000000000000000000002900000000
#05516:00000000000000000028000000000000
#01416:00000012000000000000000012000000
#0141c:1200001200000000
#01418:00000012000000000000000012000000
#01412:1200001200000000
#01512:12
#0151c:12
#0151b:0000001300000000
#01519:0053
#01515:00000053
#01517:0000000000530000
#00514:00120000
#00512:12
#0051a:00120000
#0051c:12
#02316:22000022000022000000000000000000
#02312:00002226
#02318:00000000000000220000220000000000
#02314:00000000002200000000000000000000
#01259:0000000000000013
#01252:0000000000000013
#02256:14
#02258:00000056
#0275b:00000000000000000000005300000000
#02756:00440000
#02752:00000034000000000000000000000000
#02458:00000000520000000000005200000000
#0245c:0000002200000000
#02456:1462
#03558:26560000
#03552:0000362600000000
#03452:1300000000000066
#03458:0000000000000046
#0345b:13000000000000530000000000000000
#05252:36530000
#05257:0000000000230000
#05256:0000000000000063
#0525b:0063
#05258:46
#00758:00000046
#00656:0000000000000053
#0065a:44
#00658:0053
#00857:0000000000000053
#00855:0063
#01856:63000063
#01852:000000000000000000000000000000000000340000000000000000000000000000000000000000000000002300000000
#0185a:44000044
#01857:0000005300000000
#02052:0000006200000012
#02056:0022
#0205c:0000005200000012
#02058:0022
#02852:43000000002300004600000023004600
#02856:43000000530000000000005300000000
#02858:0000000046000046
#02956:00530000000000000000000000001800
#0295b:0000002300000000
#02957:00630000
#02952:0000000000000054
#00356:0000520000000062
#00352:12
#00358:0000620000000062
#0035c:12
#0045c:0022000000000000
#00456:0000005200000000
#00452:0022000000000000
#00458:0000005200000000
#01758:00000000000000002200000000000000000000000000000000000000000000000052000000000000000000000000000000000000000000000000000000000000
#01756:00000000000000002200000000000000000000000000000000000000000000000052000000000000000000000000000000000000000000000000000000000000
#01759:0000000000000000000000220000000000000000000000000000000000000000
#01755:0000000000000000000000220000000000000000000000000000000000000000
#01757:00000000000000000000000000000000000000000000000000000000000000000000000000000000000000000000000000000000000000000000000000000000000000000000000000000000000000000000000000000000000000000000000000000000000000000000000000000000000000000000000052520000000000000000000000000000000000000000000000000000000000000000000000000000000000000000000000000000000000000000000000000000000000000000000000000000000000000000000000000000000000000000000000000000000000000000000000000000000000000000000000000000000000000000000000000000000000000000000000000000000000000000000000000000000000000000000000000000000000000000000000000000000000000000000000000000000000000000000000000000000000000000000000000000000000000000000000000000000000000000000000000000000000000000000000000000000000000000000000000000000000000000000000000000000000000000000000000000000000000000000000000000000000000000000000000000000000000000000000000000000000000000000000000000000000000000000000000000000000000000000000000000000000000000000000000000000000000000000000000000000000000000000000000000000000000000000000000000000000000000000000000000000000000000000000000000000000000000000000000000000000000000000000000000000000000000000000000000000000000000000000000000000000000000000000000000000000000000000000000000000000000000000000000000
#03056:00540000
#03056:00540000
#0305a:0000000024000044
#03052:0000000000000034
#0325b:0000000000000000002300000000000000000000000000000000000000000000
#03256:0000002300000000000000000000000000000000000000000000000000000000
#03258:4600000000000046
#03252:5300005300000000
#03257:00000053000000000000000000000000
#03358:00460000
#03356:0053
#0375b:00000000000000000000000000630000
#03752:00000000360000000000005300000000
#03856:14620000
#0385a:0000000000000044
#03852:0000002200000034
#03858:00520000
#0385c:0000002200000000
#0405b:0000000000000013
#04052:33
#04058:56
#04056:0000000000000053
#0445b:5353
#04456:00530000
#04457:0000000000000013
#04452:3300000000000063
#04652:630000000000000000000000000000000000000000000000000000000000000000000000000000000000000000000000000000000000000000000000000000006300000000000000000000000000000000000000000000000000000000000000000000000000000000000000000000001c5c0000000000000000000000000000
#04657:00630000
#0465b:43
#01953:63
#01956:00000014
#0105a:44
#01052:00330033
#03652:3600000000000000002300000000000000000000000000000000000036000000
#0365b:6300006300000000
#03657:0000002300000000000000000000000000000000000000000000000000000000
#03656:00000063000000000000000000000000
#04856:0000000000000064
#04852:36
#0495b:00000053
#04955:0000000000000024
#04952:00000033
#05056:0000000000000054
#05057:47
#05456:0000000000230000
#0545b:00630000
#05452:0000000053002345
#05455:13
#05457:0000000000000045
#05458:13
#0535b:0000000000000023
#05352:0000000000000023
#05355:00000053
#05358:00000000000000000000006300000000
#05552:00000000000000000000003300000000
#05555:00000000000000000000004900000000
#01352:0000003300000000
#02152:00620000
#02156:0012
#0215c:00520000
#02158:0012
#01456:00000052000000000000000052000000
#0145c:6200006200000000
#01458:00000062000000000000000062000000
#01452:5200005200000000
#01552:22
#0155c:22
#02656:0034000044000014
#0265a:00440000000000000000000000001400
#02652:00000000000000340000000000000000
#0425b:43
#04252:6600000000000013
#04257:0000000000000063
#0115b:00430043
#02352:00000066
#04152:23
#0435b:23
#04556:23
#04552:00000000000000530000000000000000
#04557:0000005300000000
#02552:0056
#02558:0056
#00554:00520000
#00552:22
#0055a:00620000
#0055c:22
#00955:0000000000130000
#0023c0:0012
#0033c0:22
#003360:00120000
#003320:00000000000000220000000000000000
#003381:00120000
#0033c1:00000000000000220000000000000000
#003381:0000000000000012
#0043c1:0032000000000000
#004381:0000003200000000
#004361:0032
#004321:00000032
#005321:32
#005341:00520000
#005361:00005222
#003360:0000000000000012
#004320:0032000000000000
#004360:0000003200000000
#004380:0032
#0043c0:00000032
#0053c0:32
#0053a0:00520000
#005380:00005222
#006380:0013
#006360:0000000000230000
#006360:0000000000000013
#007320:0023
#007381:0000132300000000
#0073b1:0000000013230000
#008351:0013
#008371:0000000000230000
#008371:0000000000000013
#0093b1:0023
#009350:0000132300000000
#012321:1300000000230000
#012350:0000001300230000
#012390:0000000000000000000000000000000000000000001300000000000023000000
#012321:0000000000000000000000000000000000000000000000000013000023000000
#013371:0000001300230000
#0143c1:1200003200000000
#014381:00000032000000000000220000000000
#014320:1200003200000000
#014360:00000032000000000000220000000000
#014360:00000012
#015320:52
#015360:00220000
#014381:00000012
#0153c1:52
#015381:00220000
#015381:0000001300000000
#015321:00000023
#016361:0000000000000012
#017361:00000000000000005200000000000000000000000000000000000000000000000052000000000000000000000000000000000000000000000000000000000000
#017371:00000052000000000000000000000000
#017391:0000000000000000000000520000000000000000000000000000000000000000
#017321:00000022
#016380:0000000000000012
#017380:00000000000000005200000000000000000000000000000000000000000000000052000000000000000000000000000000000000000000000000000000000000
#017370:00000000000000000000000000000000000000000000000000000000000000000000000000000000000000000000000000000000000000000000000000000000000000000000000000000000000000000000000000000000000000000000000000000000000000000000000000000000000000000000000000520000000000000000000000000000000000000000000000000000000000000000000000000000000000000000000000000000000000000000000000000000000000000000000000000000000000000000000000000000000000000000000000000000000000000000000000000000000000000000000000000000000000000000000000000000000000000000000000000000000000000000000000000000000000000000000000000000000000000000000000000000000000000000000000000000000000000000000000000000000000000000000000000000000000000000000000000000000000000000000000000000000000000000000000000000000000000000000000000000000000000000000000000000000000000000000000000000000000000000000000000000000000000000000000000000000000000000000000000000000000000000000000000000000000000000000000000000000000000000000000000000000000000000000000000000000000000000000000000000000000000000000000000000000000000000000000000000000000000000000000000000000000000000000000000000000000000000000000000000000000000000000000000000000000000000000000000000000000000000000000000000000000000000000000000000000000000000000000000000000000000000000000000000
#017350:0000000000000000000000520000000000000000000000000000000000000000
#0173c0:00000022
#018360:13
#018320:00000023000000000000000000000000
#018370:0000001300000000
#0183b0:0000000000230000
#018360:00000013
#018320:000000000000000000000000000000000000000000000000000000000000000000000000000000000000005300000000
#019330:53
#019360:00220000
#019370:0013
#0193b0:000000000000000000000000005300230000000000000000
#019361:0000000000130000
#019321:000000000000000053230000
#020321:00000012000032000000220000000000
#020361:0052
#0203c0:0000001200220000
#020380:0052
#021320:00120000
#021360:0022
#0213c1:00120000
#021381:0022
#0223c1:0012
#022381:0000000000220000
#022360:0000000000120000
#022320:00000022
#022381:00000016
#0233c1:00000000002200000000000000000000
#023360:12
#023320:0022000000000000
#023321:0012
#023361:0000000000220000
#023380:0000000000120000
#0233c0:00000022
#023321:00000016
#024321:00220000
#024380:00122200
#0243c0:0000005200000000
#024361:0012
#024321:00000000000000000000002200000000
#024380:00000000000000000000001200000000
#0243c0:0000000000000022
#025320:0016
#0253c0:00000022
#025381:0016
#025321:00000022
#027361:0013
#028361:23
#0273b0:00000000000000000000001300000000
#028320:23
#028360:00130000
#028320:00000000005300002600000000000000
#028360:00000000000000000000001300000000
#028320:0000000000005326
#029360:00130000000000000000000000000000
#029320:0053230000000000
#029371:00132300
#0293b1:0000005300000000
#029321:0000000000000014
#030361:0024000000000000
#030361:00140024
#0303a1:0054
#032321:13000023000000000000000000000000
#032361:0000005300000000000000000000000000000000000000000000000000000000
#032370:00000013000033000000230000000000
#0323b0:0000000000000000005300000000000000000000000000000000000000000000
#032321:0000001300000000
#0323b1:0000000000230000
#033361:0013
#033321:0000000000230000
#033321:00000000000000000000000000130000
#034321:23
#0333b0:00000000000000000000000000130000
#0343b0:23
#0343b0:00000000000000130000000000000000
#034370:0000000000230000
#034320:0000000000000016
#034350:0000000000000000000000000000000000000000000000000000000000363636
#035380:36
#035350:0036363600000000000000000000000000000000000000000000000000000000
#035320:0026000000000000
#035380:00162600
#035350:0000000000000000003636360036363600000000000000000000000000000000
#035320:0000003600000000
#0363b0:13000023000000000000000000000000
#036370:0000005300000000000000000000000000000000000000000000000000000000
#036361:00000013000033000000230000000000
#036321:0000000000000000005300000000000000000000000000000000000000000000
#0363b0:0000001300000000
#036320:0000000000230000
#037320:00000000000000000000001300000000
#037360:000000000000000000000000000000000000000000000000000000000000000000000000000000000000000000000000000000000000000000000000000000000000000000000000000000000000000000000000000000000000000000000000000000000000000000000000000000000000000000000000000000000000000000000000000000000000000000000000000000000000000000000000000000000000000000000000000000000000000000000000000000000000000000000000000000000000000000000000000000000000000000000000000000000000000000000000000000000000000000000000000000000000000000000000000000000000000000000000000000000000000000000000000000000000000000000000000000000000000000000000000000000000000000000000000000000000000000000000000000000000000000000000000000000000000000000000000000000000000000000000000000000000000000000000000000000000000000000000000000000000000000000000000000000000000000000000000000000000000000000000000000000000000000000000000000000000000000000000000000000000000000000000000000000000000000000000000000000000000000000000000000000000000000000000000000000000000000000000000000000000000000000000000000000000000000000000000000000000000000000000000000000000000000000000000000000000000000000000000000000000000000000000000000000000000000000000000000000000000000000000000000000000000000000000000000000000000000000000000000000000000000000000000000000000000000000000000000000000000000000000000000000000000000000000000000000000000000000000000000000000000000000000000000000000000000000000000000000000000000000000000000000000000000000000000000000000000000000000000000000000000000000000000000000000000000000000000000000000000000000000000000000000000000000000000000000000000000000000000000000000000000000000000000000000000000000000000000000000000000000000000000000000000000000000000000000000000000000000000000000000000000000000000000000000000000000000000000000000000000000000000000000000000000000000000000000000000000000000000000000000000000000000000000000000000000000000000000000000000000000000000000000000000000000000000000000000000000000000000000000000000000000000000000000000000000000000000000000000000000000000000000000000000000000000000000000000000000000000000000000000000000000000000000000000000000000000000000000000000000000000000000000000000000000000000000000000000000000000000000000000000000000000000000000000000000000000000000000000000000000000000000000000000000000000000000000000000000000000000000000000000000000000000000000000000000000000000000000000000000000000000000000000000000000000000000000000000000000000000000000000000000000000000000000000000000000000000000000000000000000000000000000000000000000000000000000000000000000000000000000000000000000000000000000000000000000000000000000000000000000000000000000000000000000000000000000000000000000000000000000000000000000000000000000000000000000000000000000000000000000000000000000000000000000000000000000000000000000000000000000000000000000000000000000000000000000000000000000000000000000000000000000000000000000000000000000000000000000000000000000000000000000000000000000000000000000000000000000000000000000000000000000000000000000000000000000000000000000000000000000000000000000000000000000000000000000000000000000000000000000000000000000000000000000000000000000000000000000000000000000000000000000000000000000000000000000000000000000000000000000000000000000000000000000000000000000000000000000000000000000000000000000000000000000000000000000000000000000000000000000000000000000000000000000000000000000000000000000000000000000000000000000000000000000000000000000000000000000000000000000000000000000000000000000000000000000000000000000000000000000000000000000000000000000000000000000000000000000000000000000000000000000000000000000000000000000000000000000000000000000000000000000000000000000000000000000000000000000000000000000000000000000000000000000000000000000000000000000000000000000000000000000000000000000000000000000000000000000000000000000024
#0373b1:00000000000000000000000000130000
#038361:24
#038361:00122200
#038321:0000005200000000
#038380:00122200
#0383c0:0000005200000000
#040380:16
#0403b0:0000000000000023
#040361:0000000000000013
#041321:53
#041361:0023000000000000
#042321:1600000000000023
#042370:0000000000000013
#0433b0:53
#043370:0023000000000000
#0443b0:13
#044370:0023000000000000
#044360:00130000
#044320:0000002300000000
#0443b0:0013
#044370:0000000000230000
#044320:0000000000000013
#045360:53
#045320:0023000000000000
#045370:0000001300000000
#0453b0:0000000000230000
#045321:00000000000000130000000000000000
#045361:0000000000230000
#046321:13
#046361:0023000000000000
#046371:00130000
#0463b1:0000002300000000
#046321:0013
#046361:0000000000230000
#048361:0000000014240000
#048361:0000000000000014
#0493b1:0023
#049360:0000132300000000
#049360:0013
#049380:0000000000230000
#0493b0:00000013
#049350:0000000000000054
#050370:27
#050360:0000000014240000
#050360:0000000000000014
#051320:0023
#051371:0000132300000000
#051320:000000000000000000000000000000000000000000000000000000000000000000000000000000000000000000000000000000000000000000000000000000000000000000000000000000000000000000000000000000000000000000000000000000000000000000000000000000000000000000000000130000000000540000000000530000000000540000000000530000540000530000540000530000540000530000540000530054005300540053005400530054005300540053005400
#052320:26
#0513b1:000000000000000000000000000000000000000000000000000000000000000000000000000000000000000000000000000000000000000000000000130000000000530000000000530000530000530000530000530053005300530053005300
#0513a1:000000000000000000000000000000000000000000000000000000000000000000000000000000000000000000000000000000000000000000000000000000000000000000000000000000000000000000000000000000000000000000000000000000000000000000000000000000000000000000000000000000000000540000000000000000000000540000000000000000540000000000540000000000540000000000540000000054000000540000005400000054000000540000005400
#052381:26
#052321:00130000
#052361:00000000000000230000000000000000
#0523b1:00001323
#052371:0000000000530000
#052361:0000000000000013
#053321:0023000000000000
#053381:00000000000000000000001300000000
#0533b1:0000000000000053
#054381:23
#053350:00000013
#053320:0000000000000053
#054350:23
#0543b0:00130000
#054370:00000000000000230000000000000000
#054320:0000000013003325
#054360:0000000000530000
#002980:0000000000120000
#002920:00000000000000000000000000000000000000000000000000000000000000000000000000000000000000000000000000000000520000000000000000005252
#003920:22
#007980:0013230000000000
#0079b0:00000053000000000000000000000000
#009950:0013230000000000
#009920:00000053000000000000000000000000
#0099b0:0000000000130000
#009980:00000023
#012950:0000000000130000
#012990:0000000000000000000000000000000000000000002300000000000000000000
#012960:00000013
#012920:0000000000000000000000000000000000000000000000000023000000000000
#0139b0:00130000
#013970:0000002300000000
#013961:00130000
#013921:0000002300000000
#0159b1:0000001300000000
#015951:00000023
#019961:00120000
#019921:0022
#0259c1:00000012
#0259d1:0000000000000021
#025920:0000000000001221
#040960:0013000000000000
#040920:00230000
#040960:0000001300000000
#040920:0023
#040960:0000000000130000
#040920:00000023
#042970:0013000000000000
#0429b0:00230000
#042970:0000001300000000
#0429b0:0023
#042970:0000000000130000
#0429b0:00000023
#046920:0000000000000000000000000000000000000000000000000000000000000000000000000000000000000000000000000000000000000000000000000000000000000000000000000000000000000000000000000000000000000000000000000000000000000000000000000000000000000000000000000000000000000000000000000000000000000000000000000000000000000000000000000000000000000000000000000000000000000000000000000000000000000000000000000000000000000000000000000000000000000000000000000000000000000000000000000000000000000000000000000000000000000000000000000000000000000000000000000000000000000000000000000000000000000000000000000000000000000000000000000000000000000000000000000000000000000000000000000000000000000000000000000000000000000000000000000000000000000000000000000000000000000000000000000000000000000000000000000000000000000000000000000000000000000000000000000000000000000000000000000000000000000000000000000000000000000000000000000000000000000000000000000000000000000000000000000000000000000000000000000000000000000000000000000000000000000000000000000000000000000000000000000000000000000000000000000000000000000000000000000000000000000000000000000000000000000000000000000000000000000000000000000000000000000000000000000000000000000000000000000000000000000000000000000000000000000000000000000000000000000000000000000000000000000000000000000000000000000000000000000000000000000000000000000000000000000000000000000000000000000000000000000000000000000000000000000000000000000000000000000000000000000000000000000000000000000000000000000000000000000000000000000000000000000000000000000000000000000000000000000000000000000000000000000000000000000000000000000000000000000000000000000000000000000000000000000000000000000000000000000000000000000000000000000000000000000000000000000000000000000000000000000000000000000000000000000000000000000000000000000000000000000000000000000000000000000000000000000000000000000000000000000000000000000000000000000000000000000000000000000000000000000000000000000000000000000000000000000000000000000000000000000000000000000000000000000000000000000000000000000000000000000000000000000000000000000000000000000000000000000000000000000000000000000000000000000000000000000000000000000000000000000000000000000000000000000000000000000000000000000000000000000000000000000000000000000000000000000000000000000000000000000000000000000000000000000000000000000000000000000000000000000000000000000000000000000000000000000000000000000000000000000000000000000000000000000000000000000000000000000000000000000000000000000000000000000000000000000000000000000000000000000000000000000000000000000000000000000000000000000000000000000000000000000000000000000000000000000000000000000000000000000000000000000000000000000000000000000000000000000000000000000000000000000000000000000000000000000000000000000000000000000000000000000000000000000000000000000000000000000000000000000000000000000000000000000000000000000000000000000000000000000000000000000000000000000000000000000000000000000000000000000000000000000000000000000000000000000000000000000000000000000000000000000000000000000000000000000000000000000000000000000000000000000000000000000000000000000000000000000000000000000000000000000000000000000000000000000000000000000000000000000000000000000000000000000000000000000000000000000000000000000000000000000000000000000000000000000000000000000000000000000000000000000000000000000000000000000000000000001c005c005c000000000000000000005c0000000000000000000000000000000000000000000000000000000000000000000000000000000000000000000000000000000000000000000000000000000000000000000000000000000000000000000000000000000000000000000000000000000000000000000000000000000000000000000000000000000000000000000000000000000000000000000000000000000000000000000000000000000000000000000000000000000000000000000000000000000000000000000000000000000000000000000000000000000000000000000000000000000000000000
#047970:0022
#049960:0013230000000000
#049930:00000053000000000000000000000000
#049980:0000000000130000
#049920:00000023
#051970:0013230000000000
#0519a0:00000053000000000000000000000000
