This file was generated by Ched 2.7.0.0.
#TITLE ""
#ARTIST ""
#DESIGNER ""
#DIFFICULTY 0
#PLAYLEVEL
#SONGID ""
#WAVE ""
#WAVEOFFSET 0
#JACKET ""
#REQUEST "ticks_per_beat 480"
#00002: 4
#BPM01: 130
#00008: 01
#TIL00: ""
#VOLUME: ""
#HISPEED 00
#MEASUREHS 00
#00614:0014
#0061a:24
#00610:41
#00718:14
#00712:0014
#0081a:14
#00814:0014
#00918:14
#00912:0014
#01014:00140014
#0101a:14
#01018:0014
#0111a:14
#01114:00140014
#01118:0014
#0141a:2414
#01512:1414
#01618:14
#01812:2414
#01810:41
#0191a:1414
#02014:14
#0271a:00000000000000001400343400000000
#03012:0034140000000000
#03016:0000000000000014
#03214:00140000
#03218:0014
#03212:00000014
#0321a:24
#0321f:21
#03210:0041
#0331a:14
#03314:00140000
#0341a:00140000
#03414:0014
#03418:00000014
#03412:14
#04212:16
#04215:0016
#04112:00140000
#04116:0014
#0411a:00000014
#04018:16
#04015:0016
#0431a:00140000
#04316:0014
#04312:00000014
#04418:16
#04415:0016
#04410:41
#04512:00140000
#04516:0014
#0451a:00000014
#04612:16
#04814:0014
#0481a:24
#04918:14
#04912:0014
#0501a:14
#05014:0014
#05118:14
#05112:0014
#0541a:0000000000000014
#05418:14
#05312:14
#0521a:14
#00518:14
#00312:14
#0011a:14
#02512:14
#02314:14
#02418:14
#02410:41
#0221a:14
#03512:14
#0351a:00240000
#03618:00140000
#03614:0014
#0361a:00000014
#03612:24
#03712:14
#03718:00140000
#03812:00140000
#03818:0014
#03814:00000014
#0381a:14
#0391a:14
#03912:00140000
#03918:0014
#03914:00000014
#0261f:11
#05516:00000000000000000000002400000000
#02914:00000034
#02913:0000000000340000
#01210:41
#0275a:0064
#03056:0000000000000024
#03052:00540000
#0355a:00540000
#03558:00000014
#04252:66
#04255:0026
#04058:56
#04055:0026
#04458:56
#04455:0026
#04652:66
#04655:0000000000000016
#05556:00000000000000000000001400000000
#0545a:0000000000000054
#05458:54
#05352:54
#0525a:54
#00558:54
#00352:54
#0015a:54
#0065a:14
#0105a:14
#02554:0014
#02552:54
#02458:54
#02354:54
#0225a:54
#02858:14
#03152:0014
#0485a:14
#0013a0:14
#002380:0024
#003320:14
#004340:0024
#005380:14
#0063a0:24
#0123a0:14
#012380:00000024
#013340:14
#013320:00000024
#016380:0000000014000034
#0173a0:00000024
#020340:0000000014000034
#021320:00000024
#0223a0:14
#022380:0024
#023340:14
#023320:0024
#024380:14
#0243a0:0024
#025320:14
#025340:0024
#0263a0:14000034
#026380:0000003400000000
#027380:0034000000000000
#0273a0:00000000000000003400343400000000
#028380:24
#028320:00143400
#028340:0000000000000034
#029320:00343400
#029330:0000000000340000
#029340:0000000000003434
#030320:0034340000000000
#030360:0000000000000054
#031320:0024
#033380:00001424
#0353a0:00140000
#035380:00000024
#037340:00001424
#040380:16
#040350:0056
#041380:26
#042320:16
#042350:0056
#043320:26
#044380:16
#044350:0056
#045380:26
#046320:16
#046350:0000000056000026
#0523a0:14
#052380:00000024
#053320:14
#053340:00000024
#054380:14
#0543a0:0000000000003434
#055360:00000000000000003400002400000000
