This file was generated by Ched 2.7.0.0.
#TITLE ""
#ARTIST ""
#DESIGNER ""
#DIFFICULTY 0
#PLAYLEVEL
#SONGID ""
#WAVE ""
#WAVEOFFSET 0
#JACKET ""
#REQUEST "ticks_per_beat 480"
#00002: 4
#BPM01: 88
#00008: 01
#TIL00: ""
#VOLUME: ""
#HISPEED 00
#MEASUREHS 00
#00118:14
#00214:14
#00210:00000041
#00318:14
#00314:0014
#00512:0014
#00618:14
#00614:0014
#0071a:14
#00714:0014
#00710:0041000000000000
#00818:14
#00812:0014
#0131a:14
#01314:0014
#0131f:11
#01418:14
#01412:0014
#01612:14
#01618:00140000
#01614:0014
#0161a:00000014
#01818:00160016
#01812:2616
#0181f:21
#01810:00000041
#02012:26161600
#02212:00160016
#02218:2616
#02318:26161600
#02712:00160016
#02718:0016
#02818:00160016
#02812:0016
#02912:00160016
#02918:0016
#03112:00160016
#03118:0016
#03218:00160016
#03212:0016
#03312:00160016
#03318:0016
#03512:000000000000000000000000000000000000000000000016
#01712:24
#0171a:0000002400000000
#02510:00000041
#03010:00410000
#01210:41
#03552:000000000000000000000000000000000000000000000056
#004380:14
#005380:24
#0093a0:1424
#010340:1424
#011380:1424
#012320:1400003400002400
#0153a0:1434342400000000
#019320:16260000
#019380:00001626
#020380:000000000000000000000000000000000000160000000026
#021320:000000000000160000000026000000000000000000000000
#023320:000000000000000000000000000000000000160000000026
#024380:000000000000160000000026000000000000000000000000
#024320:000000000000000000000000000000000000160000000026
#025380:000000000000000000000000000000000000160000000026
#026320:000000000000160000000026000000000000000000000000
#026380:000000000000000000000000000000000000160000000026
#030380:00163626
#034380:1626
#034320:000000000000000000000000000000000000160000000026
#035380:000000000000160000000026000000000000000000000000
#035320:000000000000000000000000000000000000160000000036
#036350:000000000000000000000000000000000000000000000026
