This file was generated by Ched 2.7.0.0.
#TITLE ""
#ARTIST ""
#DESIGNER ""
#DIFFICULTY 0
#PLAYLEVEL
#SONGID ""
#WAVE ""
#WAVEOFFSET 0
#JACKET ""
#REQUEST "ticks_per_beat 480"
#00002: 4
#BPM01: 88
#00008: 01
#TIL00: ""
#VOLUME: ""
#HISPEED 00
#MEASUREHS 00
#0011c:12
#0011a:000000000000120000000012000012000000000012000000
#00116:000000000000000012000000000000000000000000120000
#00118:000000000000000000120000000000000012000000000012
#00114:00000012
#00214:120000000000000000000012000000000000000000000000
#0021a:000000120012000000000000000000000000000000000000
#00218:000000000000000000120012000000000000120000000000
#00216:000000000012000000000000000000000000000000000000
#00212:00000012
#00215:000000000000000000000000000000000000000000000012
#0021b:000000000000000000000000000000000000000000000012
#00210:00000041
#00418:000000000000000000000000000000000012000000000000000000000000000000000000000000000000000000120000
#00412:000000000000000000000000000000000012000000000000000000000000000000000000000000000000000000000000
#00516:120000000000000000120012000000000000000000000012
#00518:000000120012000000000000000000000000000000000000
#00618:12
#0061c:000000000012000000000000000000000000000000120012
#00616:000000000012000000000000000000000000000000120012
#00612:000000000000000000000012000000000000000000000000
#00718:000012000012000000000012000000000000120000000012
#00712:000000000000120000001200000000000000000000000000000000000012000000000000000000000000000000000000
#0071c:0000001200000012
#00716:000000000000000012000012000000000000000000120000
#00710:0041000000000000
#00814:120000000000000000000012000000000000000000000000
#0081a:000012000000000000000012000000000000000000000000
#00816:0012001200000012
#0081c:000000000012000000000000000000000000120000000000
#00818:000000000000000000000000000000120000000012000000
#00812:0000000000120000
#00912:001200000000001200000000
#00918:0012000000120000
#00914:000000000012000000000012000000000000000000000000
#0091a:00121200
#00916:001200
#0091c:0000001200000000
#0111c:0012000000120000
#01118:000000000012000000000000000000000000000000120000
#01112:0000001200000012
#01116:000000000000000000000012000000120000000000000000
#0111a:00000012
#01114:00000012
#01218:001200
#01216:1212001200000000
#0121c:1212000000000000
#01212:00120000
#01215:000000000000000000000013
#01210:41
#01318:001300000013001300000000
#01315:001313001300
#01312:23230013
#0131f:11
#0131b:2323
#01416:0000000000000012
#01418:000000001300000013000000000000001300000000000012
#01415:001300000013001300000000
#0141b:23230013
#01412:2323
#0151b:00000013
#01518:000000000013
#01515:000000000000000000000013
#01514:2200002200000000
#01517:0022000000000000
#0151a:00220000
#01612:130000130000000000130033000033000000230000000000
#01618:0000000000000013
#01615:000000000000000000000000000000000000000000000013
#0161b:130033000033000000130000130000000000230000000000
#01617:0013000000130000
#01616:00131300
#01715:000013000000000000230000000000000000000000000000
#01712:000000000013000000000000000000000000000000130000
#01717:0000000000000013
#01718:230000000000000013000013000000000000000000000000
#0171b:000000000000001300000000
#01818:001300
#01815:0000001300000000
#0181b:230000000000230000000013003300000013000000000000
#01816:230000000000230000000013003300000000130000000000
#01819:000000000013
#01814:0000000000000013
#01817:000000130000000000000000000000000000000000000013
#01812:0013000000000000
#0181f:21
#01810:00000041
#01912:13
#0191b:000000130013000033000000000000000000000000000000
#01918:000000000013
#01915:000000000000000000000000000000000000000000130013
#02018:13130000
#02015:000000000000130000000000000000000000130000000000001400000000000000000000000000000000000000000000
#0201b:000000130000000000000000000000130000000000000000000000000000000000000000000000000000000000001300
#02012:00000013000000000000000013000000
#02017:000000000000000000000000000000000000000000000014000000140000000000000000130000000000000000000000
#02016:000000000000000000000024141400000000000000000013
#03012:000000130000000000130000000000000013000013000000
#03018:000000000013000000000013000000130000000000000000
#03015:000000130000131300000000
#0301b:0013001300000000
#03010:00410000
#03312:000000130000130000000000130000000000000013000000
#03318:000000000013000000000013000000000000000013000000
#0331b:000000130000000000130000000000000000000000000013
#03315:000000000000000013000000000013000013000000000000
#03316:000000000000000000000000000000000000000000000013
#03417:000000000000000000000013000000000000000000000000000000000000130000000000000000000000000000001300
#03412:000000000000000000000013000000000000000000000000000000000000130000000000000000001300000000001300
#00319:00120000
#00313:00120000
#00316:000000000000000000000012000000000000000000000000
#0031c:000000000000000000000012000000000000000000000000
#00318:00000012
#00312:00000012
#00315:000000000000000000000000000000000000000000000012
#0031b:000000000000000000000000000000000000000000000012
#0101c:001200000000001200000000
#01016:0012000000120000
#0101a:000000000012000000000012000000000000000000000000
#01014:00121200
#01018:001200
#01012:0000001200000000
#0211b:000000000000000000000013000000000000000000130000
#02112:00130000
#02117:00130000
#02116:000000000000000000000013000000000000000000130000
#02215:001300
#02218:0000001300000000
#02212:230000000000230000000013000000000013000000000000
#02217:230000000000230000000013000000000000130000000000
#02214:000000000013
#02219:0000000000000013
#02216:000000130000000000000000000000000000000000000013
#0221b:0013000000000000
#0231b:13000013
#02312:000000130013000033000000000000000000000000000013
#02316:00000013
#02317:000000000000000000000000000000000000000000000013
#02412:000000000000000000000013000000000000000000000013
#0241b:00130013
#02416:00130013
#02417:000000000000000000000013000000000000000000000013
#02516:000000000000000000000000000000000000000000000013
#02512:0000000000130000
#02517:0000000000130000
#0251b:000000000000000000000000000000000000000013000013
#02510:00000041
#02617:000000000000000000000013000000000000000000000000
#02612:000000000000130013000013000000000000000000000000
#0261b:000000000000000000000000000000000000130013000013
#02616:000000000000000000000000000000000000000000000013
#0351b:000000000000000013000013000000000000000000000000
#03516:000000000000000000000013000000000000130000000000
#03517:000000000000130000000000000000000000000000000013
#03512:000000000000000000000000000000000000000013000013
#03616:000000000000000000000013000000000000000000000000
#0361b:000000000000000000000013000000000000000000000000
#02712:000000130000000000000000130000000000000013000000
#0271b:000000000013000000000000000000130013000000000000
#02716:000000000000130000000000000000130013000000000000
#02719:001300
#02714:0000001300000000
#02717:000000000000000000000013000000000000000000000000
#0281b:000000130000000000000000130000000000000013000000
#02812:000000000013000000000000000000130013000000000000
#02817:000000000000130000000000000000130013000000000000
#02814:001300
#02819:0000001300000000
#02816:000000000000000000000013000000000000000000000000
#02912:000000130000000000000000130000000000000013000000
#0291b:000000000013000000000000000000130013000000000000
#02916:000000000000130000000000000000130013000000000000
#02919:001300
#02914:0000001300000000
#02917:000000000000000000000013000000000000000000000000
#0311b:000000130000000000000000000000000000000013000000
#03115:000000000013000000130013000000000000000000000000
#03118:000000131300130000000000
#03112:000000130000000000000000000000130013000000000000
#03117:000000000000000000000000000000000013000000000000
#03212:000000130000000000000000000000000000000013000000
#03218:000000000013000000130013000000000000000000000000
#03215:000000131300130000000000
#0321b:000000130000000000000000000000130013000000000000
#03216:000000000000000000000000000000000013000000000000
#00152:000000000000001200000000
#00254:520000000000000000000012000000000000000000000000
#00258:000000000000000000000012000000000000520000000000
#00256:000000000052000000000000000000000000000000000000
#0025b:000000000000000000000000000000000000000000000012
#00255:000000000000000000000000000000000000000000000012
#00252:00000052
#00359:00520000
#00353:00520000
#00356:000000000000000000000012000000000000000000000000
#0035c:000000000000000000000012000000000000000000000000
#00358:00000052
#00352:00000052
#00355:000000000000000000000000000000000000000000000052
#0035b:000000000000000000000000000000000000000000000052
#00452:000000000000000000000000000000000022000000000000000000000000000000000000000000000000000000000000
#00458:000000000000000000000000000000000022000000000000000000000000000000000000000000000000000000000000
#0055a:000000000000000000000012000000000000000000000000
#00656:000000000062000000000000000000000000000000000052
#00658:62
#00652:000000000000000000000012000000000000000000000000
#00758:000000000062000000000000000000000000000000000000
#00756:000000000000000000000052000000000000000000000000
#00752:000000000000000000000000000000000000000000000000000000000022000000000000000000000000000000000000
#0085c:000000000052000000000000000000000000000000000000
#00852:0000000000520000
#00956:000000000012
#0095c:000000000012
#01052:000000000012
#01058:000000000012
#01352:00000013
#0145b:00000013
#0165b:53
#01657:0023000000000000
#01652:0000006300000000
#01656:0023
#01752:000000000013000000000000000000000000000000530000
#0175b:000000000000001300000000
#01757:0000000000000053
#01856:130000000000130000000053000000000000000000000000
#0185b:130000000000130000000053000000000000000000000000
#01857:000000530000000000000000000013000000000000000000
#01852:000000530000000000000000000013000000000000000000
#01952:530000000000000000000013000000000000000000000000
#0195b:000000000023000000000000000000000000000000000000
#01957:000000000000000000000013000000000000000000000000
#02058:53530000
#02055:000000000000530000000000000000000000000000000000002400000000000000000000000000000000000000000000
#0205b:000000230000000000000000000000230000000000000000000000000000000000000000000000000000000000001300
#02052:00000023000000000000000053000000
#02057:000000000000000000000000000000000000000000000024000000240000000000000000530000000000000000000000
#02056:000000000000000000000054545444000000000000000013
#0215b:000000000000000000000013000000000000000000630000
#02152:00530000
#02157:00530000
#02156:000000000000000000000013000000000000000000630000
#0235b:630000000000000000000013000000000000630000000000
#02352:000000000023000000000000000000000000000000000013
#02356:000000000000000000000013000000000000630000000000
#02357:000000000000000000000000000000000000000000000013
#02256:000000630000000000000000000013000000000000000000
#0225b:000000630000000000000000000013000000000000000000
#02257:130000000000130000000063000000000000000000000000
#02252:130000000000130000000063000000000000000000000000
#02452:000000000000000000000013000000000000000000000013
#0245b:00630063
#02456:00630063
#02457:000000000000000000000013000000000000000000000013
#02556:000000000000000000000000000000000000000000000013
#02557:0000000000630000
#0255b:000000000000000000000000000000000000000000000013
#02657:000000000000000000000013000000000000000000000000
#02652:000000000000000000000013000000000000000000000000
#02656:000000000000000000000000000000000000000000000013
#0265b:000000000000000000000000000000000000000000000013
#03356:000000000000000000000000000000000000000000000053
#0335b:000000000000000000000000000000000000000000000053
#03452:000000000000000000000023000000000000000000000000000000000000530000000000000000000000000000001300
#03457:000000000000000000000023000000000000000000000000000000000000000000000000000000000000000000001300
#03556:000000000000000000000013000000000000000000000000
#0355b:000000000000000000000013000000000000000000000000
#03552:000000000000000000000000000000000000000000000053
#03557:000000000000000000000000000000000000000000000053
#0365b:000000000000000000000023000000000000000000000000
#03656:000000000000000000000023000000000000000000000000
#02757:000000000013
#02752:000000000013
#0275b:000000000000000000000000000000000053000000000000
#02852:000000000000000000000000000000000063000000000000
#0285b:000000000013
#02856:000000000013
#0295b:000000000000000000000000000000000053000000000000
#02952:000000000013
#02957:000000000013
#0305b:000000000013
#03052:000000000013
#03158:0053
#03152:000000000000000000000000000000000053000000000000
#0315b:000000000013
#03156:000000000013
#03255:0063
#0325b:000000000000000000000000000000000063000000000000
#03252:000000000013
#03257:000000000013
#000360:0000000000000012
#001360:22
#001340:0012220000000000
#001320:000000000000000000000012000022000000000000000000
#002340:12
#002360:0022000000000000
#002360:000000000012000000000000000000000000000000000000
#002340:0000002200000000
#002320:00000012
#002350:000000000022
#002381:00000012
#0023b1:000000000022
#003331:00120000
#003361:002200
#003390:00120000
#0033c0:002200
#003320:00000012
#003350:000000000022
#003381:00000012
#0033b1:000000000022
#003351:000000000000000000000000000000000000000000000012
#004321:000000000000000000000000000000000052000000000000000000000000000000000000000000000000000000000000
#004351:00000022
#0033b0:000000000000000000000000000000000000000000000012
#004380:000000000000000000000000000000000052000000000000000000000000000000000000000000000000000000000000
#0043b0:00000022
#005340:000000120022000000000000000000000000000000000000
#0053a0:000000000000000000120022000000000000000000000000
#006380:12
#0063c0:0022000000000000
#006360:000000000012000000000000000000000000000000000000
#006320:0000002200000000
#006381:000000000000000000120022000000000000000000000000
#006361:000000000000000000000000000000000000000000000012
#007321:002200000000000000000000
#007381:000000000012000000000000000000000000000000000000
#0073c1:002200
#007361:000000000000000000000012000000000000220000000000
#007321:000000000000000000000000000000000000000000000000000000000052000000000000000000000000000000000000
#0083c1:000000000012000000000000000000000000000000000000
#008381:0000002200000000
#008321:0000000000120000
#008361:00000022
#0093c1:000000000000000000000000000000000012000022000000
#009360:000000000000000000000000000000000012000022000000
#010320:000000000000000000000000000000000012000022000000
#010381:000000000000000000000000000000000012000022000000
#011361:000000120022000000000000000000000000000000000000
#011381:000000000000000000120022000000000000000000000000
#0163b1:130033000033230000000000000000000000000000000000
#016371:0033000000000000
#016321:000000000000000000130033000033230000000000000000
#016361:0033
#017381:000000130023000000000000000000000000000000000000
#017351:000000000000132300000000
#017371:0000000000000013
#0183b1:23
#017320:0000000000000013
#018360:23
#018370:0013000000000000
#0183b0:00230000
#018321:0013000000000000
#018361:00230000
#018361:000000000000000000000013003300000000000000000000
#018321:000000000000002300000000
#0183b0:000000000000000000000013003300000000000000000000
#018370:000000000000002300000000
#019320:13
#019360:000000330023000000000000000000000000000000000000
#0193b1:000000000013000033000000000000000000000000000000
#019371:000000000000000000330023000000000000000000000000
#019320:000000000000000000130023000000000000000000000000
#020380:1323000000000000
#0203b0:00530000000000000000000000000000
#020351:0013230000000000
#020321:00000053000000000000000000000000
#020380:0000132300000000
#0203b0:00000000005300000000000000000000
#020360:000000000000000000000014545424000000000000000000
#020370:000000000000000000000000000000000000000000000054000000540000000000000000000000000000000000000000
#020350:000000000000000000000000000000000000000000000000005400000000000000000000000000000000000000000000
#020320:00000013
#020360:000000000023
#020371:00000013
#0203b1:000000000023
#021321:00130000
#021361:002300
#021370:00130000
#0213b0:002300
#021360:0000000000000013
#022320:23
#0213b1:0000000000000013
#022371:23
#022361:0013000000000000
#022321:00230000
#0223b0:0013000000000000
#022370:00230000
#022370:000000000000000000000013000000000000000000000000
#0223b0:000000000000002300000000
#022321:000000000000000000000013000000000000000000000000
#022361:000000000000002300000000
#0233b1:13
#023371:000000330023000000000000000000000000000000000000
#023320:000000000013000033000000000000000000000000000000
#023360:000000000000000000330023000000000000000000000000
#0233b1:000000000000000000130023000000000000000000000000
#0233b1:00000013
#023371:000000000023
#023360:00000013
#023320:000000000023
#0243b0:00130000
#024370:002300
#024361:00130000
#024321:002300
#0243b1:00000013
#024371:000000000023
#024360:00000013
#024320:000000000023
#025370:0000000000130000
#0253b0:00000023
#025361:000000000000000000132300
#026371:000000132300000000000000
#026361:000000000000000000132300
#0273b1:000000000000000000000000000000000013000000000000
#027371:000000000023
#028321:000000000000000000000000000000000013000000000000
#028361:000000000023
#0293b1:000000000000000000000000000000000013000000000000
#029371:000000000023
#0303b1:000000000000000000000000000000000013000023000000
#031381:0013
#0313b1:0000000000230000
#031321:000000000000000000000000000000000013000000000000
#031361:000000000023
#032351:0013
#032321:0000000000230000
#0323b1:000000000000000000000000000000000013000000000000
#032371:000000000023
#0333b1:000000000000000000000000000000130023000000000000
#033361:000000000000000000000000000000000000000000000013
#034321:000000000000000000000053000000000000000000000000000000000000000000000000000000000000000000000000
#034361:0023
#0333b0:000000000000000000000000000000000000000000000013
#034370:000000000000000000000053000000000000000000000000000000000000000000000000000000000000000000000000
#0343b0:0023
#034320:0000000000130000
#034360:00000023
#0343b1:00000013
#034371:000000000023
#035321:00130000
#035361:002300
#0353b1:00000013
#035371:000000000023
#035321:000000000000000000000000000000000000000000000013
#036361:000000000000000000000053000000000000000000000000
#036321:000000000000000000000000000000000000000000000023
#035370:000000000000000000000000000000000000000000000013
#0363b0:000000000000000000000053000000000000000000000000
#036370:000000000000000000000000000000000000000000000023
