This file was generated by Ched 2.7.0.0.
#TITLE ""
#ARTIST ""
#DESIGNER ""
#DIFFICULTY 0
#PLAYLEVEL
#SONGID ""
#WAVE ""
#WAVEOFFSET 0
#JACKET ""
#REQUEST "ticks_per_beat 480"
#00002: 4
#BPM01: 88
#00008: 01
#TIL00: ""
#VOLUME: ""
#HISPEED 00
#MEASUREHS 00
#00115:000000000000000000130000000000000000000013000000
#00112:000000000000000000000000000000000013000000000013
#00118:00000013
#0011b:0000000000000013
#0041b:00000000000000000000000000000013
#00412:000000000000000000000000000000000013000000000000000000000000000000000000000000000000000000000000
#00515:130000000000000000000000000000000000000000000013
#0061b:0000000000000013
#00615:000000000013000000000000000000000000000000000013
#01314:001400000000001400000000
#0131a:241400241400
#01318:001400
#01312:000000240014000000140000
#0131f:11
#01415:0000000000000013
#01418:000014000000000000000000000014000000000000000013
#01412:241400241400
#01414:001400
#0141a:000000240014000000140000
#0151a:00000014
#01516:000000000014
#01512:230000000000000000230000000000000000000000001400
#01515:0023000000000000
#01518:00230000
#01618:000000000000000000000000000000000000000000000013
#0161b:130033330033000000000000000000000000230000000000
#01612:000000000000000000130033330033000000000000000000
#01615:0000000000000013
#01818:0000001300000000
#01815:000000000000000000000013000000000000000000000000
#0181b:000000000000000000000000000000000013330033330033
#0181a:24
#01814:00240000
#0181f:21
#01810:00000041
#01912:13
#01918:000000000013000033000000000000000000000000130000
#01915:000000000000000000000000000000000000000013000013
#02018:130000000000000000000000000000000000000000000000001400000000000000000000000000000000000000000000
#02015:00130000
#02012:00000013
#0201a:000000000000000000000000000000000000000000000014000000140000000000000000000000000000000000000000
#02019:000000000000000000000024141400000000000000000000
#02016:000000000033
#03015:000000000013000000000000130000130000000000000000
#03018:000000000000130000000013000013000000000000000000
#03012:0000001300000000
#0301b:0013000000000000
#03010:00410000
#03315:000000000013
#0331b:000000530000000000000000000053530053000000000013
#03319:000000000053530000000053530000000000000000000000
#03317:000000000000000053530000000000000000000000000000
#00718:000000000013000000000000000000000000000000000000
#00715:000000000000000000000013000000000000000000000000
#0071b:0000000000000013
#00712:000000000000000000000000000000000000000000000013
#00710:0041000000000000
#01212:130000000000000000000014
#01218:000000130000000013000000000000000000000000000000
#01215:0000131300000000
#01210:41
#03417:000000000000000000000013000000000000000000000000000000000000130000000000130000000000000000000000
#03412:0000000000131300
#0341b:000000000033
#03416:000000000033
#03617:000000000000000000000013000000000000000000000000
#03612:000000000000000000000013000000000000000000000000
#0351b:000000000000130000000000000000000000000033000013
#03516:000000000000130000000000000000000000000033000013
#03512:000000003300000000130000
#03517:000000003300000000130000
#02718:0000000000130000
#02715:000000000053530000000053530000000013000000000000
#02712:000000530000000053530000000000000000000000000000
#03118:000000530000000053530000000000000013000000000000
#03115:0000000000130000
#0311b:000000000053530000000053530000000000000000000000
#00218:13
#0021b:000000000013000000000000000000000000000000000000
#00212:00000013
#00210:00000041
#0031b:00130000
#00312:00000013
#00315:000000000000000000000000000000000000000000000013
#00818:13
#00815:001300000000000000000000
#0081b:000000000013000000000000000000000000000000000000
#00812:0000000000130000
#01112:000000130013000000000000000000000000000000000000
#01118:000000000000000000130013000000000000130000000000
#01115:0000000000130000
#0111b:0000000000000013
#01718:000013000000000000230000000000000000000000000000
#01715:230000000000000013000013000000000000000000000000
#0171b:0033000000000000
#01712:0033
#0211b:00130000
#02117:003300
#02215:0000001300000000
#02218:000000000000240000000013000000000000000000000000
#02212:240000000000000000000000000000000013330033330033
#0231b:13000013
#02315:000000000013000000000000000000000000000000000000
#02317:000000000033
#02412:00130000
#0241b:00000013
#02416:003300
#02417:000000000033
#02512:0000000000131300
#02517:0000000000131300
#0251b:000000000033
#02516:000000000033
#02510:00000041
#02616:000000130000000000003300
#0261b:000000130000000000003300
#02617:000000003300000000130000
#02612:000000003300000000130000
#02815:0000000000130000
#02818:000000000053530000000053530000000013000000000000
#0281b:000000530000000053530000000000000000000000000000
#02918:0000000000130000
#02915:000000000053530000000053530000000013000000000000
#02912:000000530000000053530000000000000000000000000000
#03215:000000530000000053530000000000000013000000000000
#03218:0000000000130000
#03212:000000000053530000000053530000000000000000000000
#0091b:000053530000000000000000000053530000000000000000
#00919:000000000053530000000053530000000000000000000000
#00917:000000000000000053530000000000000000000000000000
#01012:000053530000000000000000000053530000000000000000
#01014:000000000053530000000053530000000000000000000000
#01016:000000000000000053530000000000000000000000000000
#0015b:000000000000001300000000
#00555:000000000000000000000013000000000000000000000000
#00655:000000000053000000000000000000000000000000000053
#00652:000000000000000000000013000000000000000000000000
#00758:000000000063000000000000000000000000000000000000
#00755:000000000000000000000053000000000000000000000000
#00955:000000000013
#01352:00000014
#0165b:53
#01652:0000006300000000
#01852:000000000000001300000000
#0185a:14
#01854:00140000
#01855:000000000000000000000053000000000000000000000000
#0185b:000000000000000000000000000000000053000000000000
#01952:53
#0195b:000000000000000000000013000000000000000000000000
#01958:000000000053000000000000000000000000000000000000
#02058:530000000000000000000000000000000000000000000000002400000000000000000000000000000000000000000000
#02055:00530000
#02052:00000053
#0205a:000000000000000000000000000000000000000000000024000000240000000000000000000000000000000000000000
#02059:000000000000000000000054545414000000000000000000
#02056:000000000000000000000000000000000000000000000013
#03457:000000000000000000000023000000000000000000000000000000000000000000000000530000000000000000000000
#03452:00000053
#0345b:000000000000000000000000000000000000000000000013
#03456:000000000000000000000000000000000000000000000013
#0335b:000000000000000000000000000000000000000000000053
#0355b:000000000000630000000000000000000000000000000063
#03556:000000000000630000000000000000000000000000000063
#03552:000000000000000000000013000000000000530000000000
#03557:000000000000000000000013000000000000530000000000
#03652:000000000000000000000023000000000000000000000000
#03657:000000000000000000000023000000000000000000000000
#02752:000000000013
#02755:000000000000000000000000000000000053000000000000
#0305b:000000000013
#03158:000000000000000000000000000000000053000000000000
#0315b:000000000013
#00258:530000000000000000000013000000000000000000000000
#0025b:000000000053000000000000000000000000000000000000
#00252:00000053
#00255:000000000000000000000000000000000000000000000013
#0035b:00630000
#00358:000000000000000000000013000000000000000000000000
#00352:00000053
#00355:000000000000000000000000000000000000000000000053
#00452:000000000000000000000000000000000023000000000000000000000000000000000000000000000000000000000000
#0085b:000000000053000000000000000000000000000000000000
#00852:0000000000530000
#01058:000000000013
#0145a:00000014
#01758:005300000000000000000000
#0175b:000000000013000000000000000000000000000000000000
#01755:000000000000000000000063000000000000000000000000
#01752:000000000000001300000000
#0215b:00630000
#02157:000000000000000000000013000000000000000000000000
#0235b:63000063
#02355:000000000063000000000000000000000000000000000000
#02352:000000000000000000000013000000000000000000000000
#02357:000000000000000000000000000000000000000000000013
#02258:000000000000140000000063000000000000000000000000
#02252:140000000000000000000000000000000063000000000000
#0225b:000000000000001300000000
#02452:00530000
#02456:000000000000000000000013000000000000000000000000
#0245b:00000063
#02457:000000000000000000000000000000000000000000000013
#02557:00000053
#0255b:000000000000000000000000000000000000000000000013
#02552:00000053
#02556:000000000000000000000000000000000000000000000013
#02656:000000000000630000000000000000000000000000000013
#0265b:000000000000630000000000000000000000000000000013
#02652:000000000000000000000013000000000000530000000000
#02657:000000000000000000000013000000000000530000000000
#02858:000000000000000000000000000000000063000000000000
#0285b:000000000013
#02955:000000000000000000000000000000000053000000000000
#02952:000000000013
#03255:000000000000000000000000000000000063000000000000
#03252:000000000013
#000350:0000000000000013
#001350:23
#001380:0013230000000000
#0013b0:000000000000000000000013000023000000000000000000
#002380:130000000000000000330023000000000000000000000000
#0023b0:000000330033000000000000000000000000000000000000
#002320:00000013
#002350:000000000000000000000000000000000000000033000023
#0033b0:00130000
#003380:000000000000000033000023000000000000000000000000
#003320:00000013
#003350:000000000000000000000000000000000000000033000033
#004320:000000000000000000000000000000000053000000000000000000000000000000000000000000000000000000000000
#004350:00000023
#005380:000000130023000000000000000000000000000000000000
#005350:000000000000000000130023000000000000000000000000
#006380:1323000000000000
#006350:000000000013000000000000000000000000000000000000
#006320:000000000000000000330023000000000000000000000000
#006350:000000000000000000000000000000000000000000000013
#007320:0023000000000000
#007380:000000000013000000000000000000000000000000000000
#0073b0:0000002300000000
#007350:000000000000000000000013000000000000000000000000
#007320:00000023
#0083b0:000000130033000000000000000000000000000000000000
#008380:000000000000000000330023000000000000000000000000
#008320:0000000000130000
#008350:000000000000000000000000000000000000330033230000
#009350:000000000000000000000000000000000013000023000000
#010380:000000000000000000000000000000000013000023000000
#0163b0:130033330033000000000000000000000000000000000000
#016370:00230000
#016320:000000000000000000130033330033000000000000000000
#016360:0000000000230000
#017380:001300000000000000000000
#0173b0:000000330023000000000000000000000000000000000000
#017350:000000000000000000000013000000000000000000000000
#017320:000000000000332300000000
#0173a0:0000000000000014
#0183a0:24
#018340:0014240000000000
#018350:000000000000000000000013000000000000000000000000
#018320:000000000000002300000000
#0183b0:000000000000000000000000000000000013330033330033
#019380:23
#019321:13
#019351:000000330023000000000000000000000000000000000000
#019380:000000000013000033000000000000000000000000000000
#0193b0:000000000000000000330023000000000000000000000000
#020380:13
#0203b0:0023000000000000
#020350:00130000
#020320:0000002300000000
#020390:000000000000000000000014545424000000000000000000
#0203a0:000000000000000000000000000000000000000000000054000000540000000000000000000000000000000000000000
#020380:000000000000000000000000000000000000000000000000005400000000000000000000000000000000000000000000
#020320:00000013
#020360:000000000000000000000000000000000000000033000023
#0213b0:00130000
#021370:000000000000000033000023000000000000000000000000
#021320:0000000000000014
#022320:24
#022380:0014240000000000
#022380:000000000000000000000013000000000000000000000000
#0223b0:000000000000002300000000
#022320:000000000000000000000000000000000013330033330033
#023350:23
#0233b1:13
#023381:000000330023000000000000000000000000000000000000
#023350:000000000013000000000000000000000000000000000000
#023320:000000000000000000330023000000000000000000000000
#0233b0:00000013
#023370:000000000000000000000000000000000000000033000023
#024320:00130000
#024360:000000000000000033000023000000000000000000000000
#0243b0:00000013
#024370:000000000000000000000000000000000000000033000023
#025370:00000013
#0253b0:000000000000000000000000000000000000000033000023
#025321:00000013
#025361:000000000000000000000000000000000000000033000023
#026361:00130000
#026321:000000000000000033000023000000000000000000000000
#0263b0:00130000
#026370:000000000000000033000023000000000000000000000000
#026370:00000013
#0263b0:000000000000000000000000000000000000000033000023
#026321:00000013
#026361:000000000000000000000000000000000000000033000023
#027351:000000000000000000000000000000000013000000000000
#027321:000000000023
#028381:000000000000000000000000000000000013000000000000
#0283b1:000000000023
#029351:000000000000000000000000000000000013000000000000
#029321:000000000023
#0303b1:000000000000000000000000000000000013000023000000
#031381:000000000000000000000000000000000013000000000000
#0313b1:000000000023
#032351:000000000000000000000000000000000013000000000000
#032321:000000000023
#0333b1:000000000000000000000000000000000000000000000013
#034371:000000000000000000000053000000000000000000000000000000000000000000000000000000000000000000000000
#0343b1:0023
#034371:00000013
#0343b1:000000000000000000000000000000000000000033000023
#034320:00000013
#034360:000000000000000000000000000000000000000033000023
#035360:00130000
#035320:000000000000000033000023000000000000000000000000
#0353b1:00130000
#035371:000000000000000033000023000000000000000000000000
#035371:00000013
#0353b1:000000000000000000000000000000000000000033000033
#036371:000000000000000000000053000000000000000000000000
#0363b1:000000000000000000000000000000000000000000000023
#035320:00000013
#035360:000000000000000000000000000000000000000033000033
#036320:000000000000000000000053000000000000000000000000
#036360:000000000000000000000000000000000000000000000023
#0099b0:000013530000000000000000000053230000000000000000
#009990:000000000053530000000053530000000000000000000000
#009970:000000000000000053530000000000000000000000000000
#010920:000013530000000000000000000053230000000000000000
#010940:000000000053530000000053530000000000000000000000
#010960:000000000000000053530000000000000000000000000000
#027920:000000130000000053530000000000000000000000000000
#027950:000000000053530000000053230000000000000000000000
#0289b0:000000130000000053530000000000000000000000000000
#028980:000000000053530000000053230000000000000000000000
#029920:000000130000000053530000000000000000000000000000
#029950:000000000053530000000053230000000000000000000000
#031980:000000130000000053530000000000000000000000000000
#0319b0:000000000053530000000053230000000000000000000000
#032950:000000130000000053530000000000000000000000000000
#032920:000000000053530000000053230000000000000000000000
#0339b0:000000130000000000000000000053530023000000000000
#033990:000000000053530000000053530000000000000000000000
#033970:000000000000000053530000000000000000000000000000
