This file was generated by Ched 2.7.0.0.
#TITLE ""
#ARTIST ""
#DESIGNER ""
#DIFFICULTY 0
#PLAYLEVEL
#SONGID ""
#WAVE ""
#WAVEOFFSET 0
#JACKET ""
#REQUEST "ticks_per_beat 480"
#00002: 4
#BPM01: 88
#00008: 01
#TIL00: ""
#VOLUME: ""
#HISPEED 00
#MEASUREHS 00
#0011c:120000000000000000000012000012000000000000000000
#00112:000000120000120000000000000000000012000000000000
#00118:000000001200000000120000
#00116:000000000000000000120000000000000000000000000012
#00114:000000000000000000000000005200000000000000000000000000000000000000000000000000001200000000000000
#0011a:005200000000000000000000000000000000000000000000000000000000000000000000000000000000120000000000
#0011b:005200000000000000000000000000000000000000000000000000000000000000000000000000000000000000000000000000000000000000000000000000000000000000000000000000000000000000000000000000000000000000000000
#00113:000000000000000000000000000000000000000000000000005200000000000000000000000000000000000000000000000000000000000000000000000000000000000000000000000000000000000000000000000000000000000000000000
#0021c:120000000000000000000012000000000000120000000000
#00216:120000120012000000000012000000000000000000000012
#00218:000000000012000000120000000000000000000000000000
#0021a:000000000000000000000000000000000000000000000012
#00212:00000012
#00210:00000041
#00418:00000000000000000000000000000012
#00415:000000000000000000000000000000000012000000000000000000000000000000000000000000000000000000000000
#00412:000000000000000000000000000000000012000000000000000000000000000000000000000000000000000000120000
#00512:120000000000000000120012000000000000000000000012
#0051c:000000120012000000000000000000000000120000000000
#00518:12
#00517:000000000000000000000000000000120000120000120012
#00617:120000120012001200000000000000000000000000000000
#0061c:000000000012000000000012000000000000000000120012
#00616:000000000000000000000000000000000000000000120012
#00612:0000000000120000
#0061a:00000012
#00614:00000012
#00618:0000000000120000
#00717:000000120012000000000000000000000000000000000000
#0071c:000000000000000000000000000000000000120000000000000000000012000000000000000000000000120000000000
#00718:000000000000000000000012000000000000000000000012
#00716:000000000000000012000012000000000000000000000000
#00712:000000001200000000001200000000000000000000000000000000000012000000000000000000000000000000000000
#00710:0041000000000000
#0081a:001200000000000000000000
#00818:0000120000120000
#00817:000000000000000000120012000000000000000012120000
#0081c:000000000000000000001200000000000000000000001200000000000000000000120000000000000000000000000000
#00816:0000000000121200
#00812:0000000000000012
#00912:000012120000000012120000000012120000000000000000
#00917:0012121212120000
#0091c:000000000012000000000012000000000000000000000000
#01117:120000120000000000000012000000000000000000000000
#01112:000000000012000000000000000000000000000000000000
#0111c:0000000000120000
#0111a:00000012
#01118:0000000000000012
#01216:120000000000000012120000000000000000000000000000
#0121c:0012000000000000
#01212:00000000120000000012000000000000
#01217:0012000000000000
#01215:000000000000000000000012
#01219:000000000000000000000000000000000000000012120000
#01218:0000121200001200
#01210:41
#0131a:001200000012001200000000
#01318:001212001200
#01316:00222212
#0131c:22222212
#0131f:11
#01312:22
#01416:000000001200000012000000000000001200000000120012
#01414:001200000012001200000000
#01418:00222212
#01412:22222212
#0141c:2200000000000012
#01514:220000000013
#01512:000000000000000000220000000000000000000000001300
#01516:0022000000001300
#01519:000000000013
#01517:000000000000000000000013
#0151b:000000000000000000000000000000000000000000000000000000000000000000000000000000000000000000000000000000000000000000000000006200000000000000000000130000000000000000000000000000000000000000000000
#01518:22220000
#0151a:0022000000620000
#0151c:000000000000000000000000220000000000000000000000000000000000006200000000000000000000000000000000
#01616:130000000000130000000013000000000000000000140000
#01612:000000130000000000130000000000000000240014000000
#0161b:1300001313000000
#01617:000013000000000000000000000000130000000000000000
#0161a:000000000000000000000000000000000000240000000014
#01712:000014000014000014000000000000140000240000000000
#01716:240000000000000000240000000000001400000000130000
#0171a:000000000000000000000014000014000014000000000000
#01816:000000000000000014000014001400000000000000000000
#01812:230000000000230000130000000013000000000000000000
#0181b:230000000000230000000013000000000013000000000000
#01818:000000000000000000131300
#01815:000000000000000000000000000000000000000000130013
#01817:0013000000000000
#0181f:21
#01810:00000041
#01912:1300000000000013
#0191b:000013130013000000000000000000000000130000000000
#01917:000000000013000000000000000000000000000013000000
#01916:000000000000000000000013000000000000000000000013
#01918:000000000000001300000000
#0201c:000000000000000000000000000000000000000000000012
#02012:0013001300001200
#02016:000000000000000000000000000000000000000000000000001300000000000000000000120000000000000000000000
#02018:000000000000000000000023131300000000000000000012
#0201b:13130000
#02014:000000000000000000000000000000000000000000000013000000130000000000000000000000000000000000000000
#02015:000000000000000000000013131300000000000000000000
#02017:000000000000000000000000000000000000000000000013000000130000000000000000000000000000000000000000
#02019:000000000000000000000000000000000000000000000000001300000000000000000000000000000000000000000000
#02712:000000120000000000120000000000120012000012000000
#02716:000000000014000014000014000014000012000000000000
#0271c:00121200
#03012:1c12000000000000
#03019:000000000012120000120000000000000000000000000000
#03015:000000000000000012120000000000000000000000000000
#0301a:000000000000000000000012000000000000000000000000
#03017:0000000012120000
#03014:000000000000001200000000
#0301c:0012000000000000
#03016:000000000000000000000000000000000012000000000000
#03018:000000000000000000000000000000000012000000000000
#03010:00410000
#03112:1c0000120000000000000000000000000012000012000000
#0311c:0012000000000000
#0311b:000000000012120000000012120000120000000000000000
#03116:0000141400000000
#03113:001200
#03312:1c0000120000000000120000000000000000000012000000
#03318:000000120000000012000000000000000000000000000000
#03317:000000000000000000000000000000000000000012000012
#03316:000000000012000000000012000012000012000000000000
#0331c:000000000000120000000000120000000000000000000012
#00318:000000000000000000000012000000000000000000000012
#0031c:000000000000120000000000000000000000120000000012
#00312:00120012
#00314:000000000000000000000012000000000000000000000000
#02518:000000000000000012000000000000000000000000000012
#02512:0000000000120000
#02516:000012000000000000000000000000130000000000000000
#0251b:000000000000000000000000000000000000000013000013
#02514:00120000
#0251a:0012
#02510:00000041
#0001c:0000000000000012
#0101c:000012120000000012120000000012120000000000000000
#01017:0012121212120000
#01012:000000000012000000000012000000000012000000000000
#02116:0012120000120000
#02118:000012000000000000000012000012000000000000000000
#02112:00120012
#0211c:000000000000000000000012000000000000120000000000
#02117:0000000000000013
#02216:000000130000000014000014000014000000000000000000
#0221b:230000000000230000130000000013000000000000000000
#02212:230000000000230000000013000000000013000000000000
#02215:000000000000000000131300
#02218:000000000000000000000000000000000000000000130013
#02316:000000000013000000000000000012000000000000000012
#02318:0000000000121200
#02312:000013130013000000000000000000000000000000000012
#0231c:00000012
#0231b:13
#02317:000000000000000000000013000000000000000000000000
#02418:0012120000121200
#02416:000012000000000000000012000012000000000000000012
#02412:000000000000000000000012000000000000000000000012
#0241c:00120012
#02618:000012000000000000000000000000120000000000000012
#02616:000000120000000000000012000012000000000000000000
#02612:000000000000130013000013000000000000000000000000
#0261b:000000000000000000000000000000000000130013000013
#0281c:000000120000000000120000000000120012000012000000
#02816:000000000014000014000014000000000000000000000000
#02812:1c121200
#02818:000000000000000000000000000000120012000000000000
#02912:1c0000120000000000120000000000120012000012000000
#02916:000000000014000014000014000000120012000000000000
#0291c:00121200
#0321c:000000120000000000000000000000000012000012000000
#03212:1c12000000000000
#03213:000000000012120000000012120000120000000000000000
#03216:0000141400000000
#0321b:001200
#03412:000012120000000000000000000000000000000000000000
#03416:0012120000001200
#0341c:000000000000000012120000000000120000000000000000
#03418:0000001212000000
#0341b:000000000000000000000000000000000000000000000012
#03417:000000000000000000000000000000130000000013000013
#03515:001200000000000000000000
#03517:000000120000000000000000000000120000000013000013
#03513:000000000000000000000012000000000000000000000000
#03516:000000000000000013000013000000000000120000000000
#03519:000000000000001200000000
#0351b:000000000000130000000000000000000000000000000012
#03512:00000013
#03518:00120000
#03616:000012000000000000120000000012000000000000000000
#03618:000000120000000012000000000000120000000012000012
#03612:00121212
#0361c:00121212
#00157:000000000000001200000000
#00256:000000000052000000000012000000000000000000000012
#0025c:520000000000000000000012000000000000520000000000
#0025a:000000000000000000000000000000000000000000000012
#00252:00000052
#00358:000000000000000000000012000000000000000000000052
#0035c:000000000000620000000000000000000000520000000052
#00352:00620052
#00354:000000000000000000000012000000000000000000000000
#00455:000000000000000000000000000000000022000000000000000000000000000000000000000000000000000000000000
#00452:000000000000000000000000000000000022000000000000000000000000000000000000000000000000000000000000
#00557:000000000000000000000012000000000000000000000000
#0065c:000000000062000000000012000000000000000000000052
#00657:620000000000002200000000000000000000000000000000
#00757:000000000062000000000000000000000000000000000000
#00756:000000000000000000000052000000000000000000000000
#00752:000000000000000000000000000000000000000000000000000000000022000000000000000000000000000000000000
#0075c:000000000000000000000000000000000000000000000000000000000022000000000000000000000000000000000000
#00758:000000000000000000000062000000000000000000000000
#00858:0000520000520000
#0085c:000000000000000000000000000000000000000000001200000000000000000000220000000000000000000000000000
#00857:000000000000000000000012000000000000000000000000
#00957:000000000012
#0095c:000000000012
#01356:00000012
#0135c:00000012
#01752:000000000014000000000000000000000000140000000000
#01756:1400001400000053
#0175a:000000000000001400000000
#01852:130000130000001300000000
#0185b:13130000
#01857:0063000000000000
#01952:530000000000000000000013000000000000000000000000
#0195b:000000000023000000000000000000000000000000000000
#01956:000000000000000000000013000000000000000000000000
#01957:000000000023000000000000000000000000000000000000
#02056:000000000000000000000000000000000000000000000000002300000000000000000000520000000000000000000000
#02052:0053000000005200
#02058:000000000000000000000053535343000000000000000012
#0205c:000000000000000000000000000000000000000000000012
#02055:000000000000000000000053535343000000000000000000
#0205b:53530000
#02054:000000000000000000000000000000000000000000000023000000230000000000000000000000000000000000000000
#02057:000000000000000000000000000000000000000000000023000000230000000000000000000000000000000000000000
#02059:000000000000000000000000000000000000000000000000002300000000000000000000000000000000000000000000
#02558:000000000000000000000000000000000000000000000012
#02556:0000000000630000
#0255b:000000000000000000000000000000000000000000000013
#0275c:000000000012
#02752:000000000012
#02756:000000000000000000000000000000000052000000000000
#03052:000000000012
#0305c:000000000012
#03058:000000000000000000000000000000000052000000000000
#03056:000000000000000000000000000000000052000000000000
#03156:000000000012
#03152:000000000012
#01055:000000000012
#01057:000000000012
#01052:000000000000000000000000000000000052000000000000
#01252:00000000000000000022000000000000
#01256:0000005200000000
#01458:00000012
#01452:00000012
#01656:00130000
#01657:0000000000130000
#02157:0000000000000063
#0215c:000000000000000000000012000000000000000000000000
#02152:00520000
#02156:00520000
#02158:000000000000000000000012000000000000000000000000
#02256:0053000000000000
#0225b:130000130000001300000000
#02252:13130000
#02352:000000000023000000000000000000000000000000000012
#0235c:00000062
#02358:00000062
#02356:000000000023000000000000000000000000000000000012
#0235b:630000000000000000000013000000000000000000000000
#02357:000000000000000000000013000000000000000000000000
#02452:000000000000000000000012000000000000000000000012
#0245c:00620062
#02458:00620062
#02456:000000000000000000000012000000000000000000000012
#02656:000000000000000000000012000000000000000000000000
#02652:000000000000000000000013000000000000000000000000
#02658:000000000000000000000000000000000000000000000012
#0265b:000000000000000000000000000000000000000000000013
#0285c:000000000012
#02858:000000000000000000000000000000000062000000000000
#02852:000000000012
#02952:000000000012
#02956:000000000000000000000000000000000052000000000000
#0295c:000000000012
#0325c:000000000012
#03258:000000000012
#0335c:000000000000000000000000000000000000000000000012
#03357:000000000000000000000000000000000000000000000012
#03456:0052000000005200
#03458:0000005200000000
#0345b:000000000000000000000000000000000000000000000012
#03457:000000000000000000000000000000530000000000000013
#03553:000000000000000000000012000000000000000000000000
#03556:000000000000000000000013000000000000520000000000
#0355b:000000000000000000000000000000000000000000000012
#03557:000000000000000000000000000000000000000000000013
#03558:00520000
#000370:0000000000000012
#001370:22
#001370:0012220000000000
#001370:000000000000000000000012000022000000000000000000
#0023c0:12
#002380:0022000000000000
#002360:000000000012000000000000000000000000000000000000
#002320:0000002200000000
#0023c0:00000012
#002360:000000000022
#002321:00000012
#0023a1:000000000022
#0033c1:00120000
#003341:002200
#003320:00120000
#003380:002200
#003320:00000012
#0033a0:000000000022
#0033c1:00000012
#003361:000000000022
#003381:000000000000000000000000000000000000000000000012
#004351:000000000000000000000000000000000052000000000000000000000000000000000000000000000000000000000000
#004381:00000022
#0033c0:000000000000000000000000000000000000000000000012
#004320:000000000000000000000000000000000052000000000000000000000000000000000000000000000000000000000000
#0043c0:00000022
#005370:000000120022000000000000000000000000000000000000
#005370:000000000000000000120022000000000000000000000000
#006370:12
#0063c0:0022000000000000
#0063c0:000000000012000000220000000000000000000000000000
#006370:000000000000005200000000000000000000000000000000
#006371:000000000000000000120022000000000000000000000000
#0063c1:000000000000000000000000000000000000000000000012
#007371:002200000000000000000000
#007371:000000000012000000000000000000000000000000000000
#0073c1:002200
#007361:000000000000000000000012000000000000220000000000
#007321:000000000000000000000000000000000000000000000000000000000052000000000000000000000000000000000000
#007380:000000000000000000000012000000000000220000000000
#0073c0:000000000000000000000000000000000000000000000000000000000052000000000000000000000000000000000000
#007320:000000000000000000000000000000000000000000120022
#008340:122200000000000000000000
#008360:000000120022000000000000000000000000000000000000
#008380:00120000
#008320:0000002200000000
#008380:0000000000122200
#0083c0:00000000000000000000005200000000
#0093c0:000000000000000000000000000000000012000022000000
#009371:000000000000000000000000000000000012000022000000
#010321:000000000000000000000000000000000012000000000000
#010351:000000000022
#010370:000000000000000000000000000000000012000022000000
#0113c0:1200002200000000
#011321:0000001200000000
#012321:22
#012361:0000001200002200
#012321:00000000000000000052000000000000
#0163b1:000000000013230000000000000000000000000000000000
#016321:000000000000000000000000000013230000000000000000
#017361:000000140024000000000000000000000000000000000000
#017361:000000000000142400000000
#017361:0000000000000013
#0183b1:23
#017320:0000000000000013
#018320:23
#018370:0013000000000000
#018320:00230000
#0183b1:0013230000000000
#019321:130000000000000000330023000000000000000000000000
#019371:000000330033000000000000000000000000000000000000
#0193b0:000000000013000000000000000000000000000000000000
#019360:0000002300000000
#019351:0000000000132300
#0203b1:13
#020361:0023000000000000
#020320:0013000000000000
#020370:00230000
#0203b1:00130000
#020361:0000002300000000
#020351:000000000000000000000013535323000000000000000000
#020341:000000000000000000000000000000000000000000000053000000530000000000000000000000000000000000000000
#020361:000000000000000000000000000000000000000000000000005300000000000000000000000000000000000000000000
#020380:000000000000000000000013535323000000000000000000
#020370:000000000000000000000000000000000000000000000053000000530000000000000000000000000000000000000000
#020390:000000000000000000000000000000000000000000000000005300000000000000000000000000000000000000000000
#020320:00000012
#020380:000000000022
#020361:00000012
#0203c1:000000000022
#021321:00120000
#021381:002200
#021360:00120000
#0213c0:002200
#021370:0000000000000013
#022320:23
#0213b1:0000000000000013
#0223b1:23
#022361:0013000000000000
#0223b1:00230000
#022320:0013230000000000
#0233b0:130000000000000000330023000000000000000000000000
#023360:000000330033000000000000000000000000000000000000
#023321:000000000013000000000000000000000000000000000000
#023371:0000002300000000
#0233c0:00000012
#023360:000000000022
#023381:00000012
#023321:000000000022
#0243c1:00120000
#024361:002200
#024380:00120000
#024320:002200
#0243c0:00000012
#024360:000000000022
#024381:00000012
#024321:000000000022
#025381:0012220000000000
#025361:0000001222000000
#025361:0000000000130000
#0253b1:00000023
#025380:000000000000000000122200
#026360:000000122200000000000000
#026380:000000000000000000122200
#027360:000000000000000000000000000000000012000000000000
#0273c0:000000000022
#028380:000000000000000000000000000000000012000000000000
#028320:000000000022
#029360:000000000000000000000000000000000012000000000000
#0293c0:000000000022
#030360:000000000000000000000000000000000012000000000000
#030320:000000000022
#030381:000000000000000000000000000000000012000000000000
#0303c1:000000000022
#031361:0000000014240000
#031361:000000000000000000000000000000000012000022000000
#032361:0000000014240000
#032381:000000000000000000000000000000000012000022000000
#033381:000000000000000000000000000000120022000000000000
#034361:0012000000000000
#0343a1:00220000
#034381:0000001200000000
#034341:0022
#034371:0000000000130000
#034321:00000023
#034360:00000012
#0343b0:000000000022
#035380:00120000
#035330:002200
#035360:00000012
#0353b0:000000000022
#036360:000000000000000000000000000000000000000000120022
