This file was generated by Ched 2.7.0.0.
#TITLE ""
#ARTIST ""
#DESIGNER ""
#DIFFICULTY 0
#PLAYLEVEL
#SONGID ""
#WAVE ""
#WAVEOFFSET 0
#JACKET ""
#REQUEST "ticks_per_beat 480"
#00002: 4
#BPM01: 88
#00008: 01
#TIL00: ""
#VOLUME: ""
#HISPEED 00
#MEASUREHS 00
#0031a:14
#00314:00140000
#00318:0014
#00312:00000014
#00512:14140000
#00518:00001414
#00614:14140000
#0061a:00001414
#00912:14
#00918:0014000000000000
#00913:00140000
#00919:0000001400000000
#00914:0014
#0091a:0000000000140000
#00915:00000014
#0101a:14
#01014:0014000000000000
#01019:00140000
#01013:0000001400000000
#01018:0014
#01012:0000000000140000
#01017:00000014
#01112:14
#01118:00140000
#01114:0014
#0111a:00000014
#01314:00140000
#0131f:11
#0131a:24
#01418:00140000
#01412:24
#01512:00000014
#0151a:54
#01519:0054000000000000
#01518:00540000
#01517:0000005400000000
#0161a:14
#01614:0014000000000000
#01619:00140000
#01613:0000001400000000
#01618:0014
#01612:0000000000140000
#01714:0000001400000000
#01812:00140000
#0181a:0014
#01814:00000014
#01818:2400000000000014
#0181f:21
#01810:00000041
#01912:14
#0191a:00140000
#01914:0014
#0201a:14
#02012:00140000
#02018:0014
#0221a:00140000
#02212:0014
#02218:00000014
#02214:2400000000000014
#0231a:14
#02312:00140000
#02318:0014
#0251a:0000000000140000
#02510:00000041
#02712:0014000000140000
#02718:00140014
#02714:0000001400000000
#0271a:0014
#0281a:0014000000140000
#02814:00140014
#02818:0000001400000000
#02812:1414
#02912:0014000000140000
#02918:00140014
#02914:0000001400000000
#0291a:1414
#0311a:0014000000140000
#03114:00140014
#03118:0000001400000000
#03112:1414
#03212:0014000000140000
#03218:00140014
#03214:0000001400000000
#0321a:1414
#0331a:0014000000140000
#03314:00140014
#03318:0000001400000014
#03312:1414
#03412:14
#0341a:0000000000140000
#03518:000000000000000000000000000000000000000000000014
#0361a:000000000000000000000014000000000000000000000000
#00210:00000041
#00212:540000000000540000000054000000000000000000000000
#03010:00410000
#00710:0041000000000000
#01210:41
#0011a:540000000000540000000054000000000000000000000000
#01358:00000014
#01454:00000014
#0175a:14
#01754:0000001400000000
#01858:14
#01954:0014
#02058:0014
#02054:000000000000000000000000000000000000000000000014
#02158:000000000000000000000014000000000000000000000000
#02358:0014
#02354:000000000000000000000000000000000000000000000014
#02254:14
#02458:000000000000000000000014000000000000000000000000
#02454:000000000000000000000000000000000000000000000014
#02654:000000000000000000000014000000000000000000000000
#02658:000000000000000000000000000000000000000000000014
#02558:000000000000000000000000000000000000000000000014
#0255a:0000000000540000
#03054:00140000
#03058:00000014
#03154:00000014
#03258:00000014
#03452:54
#0345a:0000000000540000
#03458:000000000000000000000000000000000000000000000014
#03554:000000000000000000000014000000000000000000000000
#03558:000000000000000000000000000000000000000000000054
#0365a:000000000000000000000024000000000000000000000000
#0043a0:14
#004380:00000024
#007320:14
#007340:00240000
#0073a0:0014
#007380:00000024
#008340:14
#008320:00240000
#008380:0014
#0083a0:00000024
#012320:14
#012340:00000024
#013380:00001424
#014340:00001424
#0163a0:0000000000001434
#0173a0:24
#017380:0000000000000014
#018380:24
#020340:000000000000000000000000000000000000140034000024
#021380:000000000000140034000024000000000000000000000000
#021340:0000000000000014
#022340:24
#023340:000000000000000000000000000000000000140034000024
#024380:000000000000140034000024000000000000000000000000
#024340:000000000000000000000000000000000000140034000024
#0253a0:0000000000140000
#025380:000000000000000000000000000000000000340034000024
#026340:000000000000140034000024000000000000000000000000
#026380:000000000000000000000000000000000000140034000024
#030340:14240000
#030380:00001424
#034320:14
#034340:0024
#0343a0:0000000000140000
#034380:000000000000000000000000000000000000340034000024
#035340:000000000000140034000024000000000000000000000000
#035380:000000000000000000000000000000000000140034000034
#0363a0:000000000000000000000054000000000000000000000000
#036380:000000000000000000000000000000000000000000000024
#0019a0:140000000000000000000024000000000000000000000000
#002920:140000000000000000000024000000000000000000000000
#0159a0:14
#015970:0000002400000000
