This file was generated by Ched 2.7.0.0.
#TITLE ""
#ARTIST ""
#DESIGNER ""
#DIFFICULTY 0
#PLAYLEVEL
#SONGID ""
#WAVE ""
#WAVEOFFSET 0
#JACKET ""
#REQUEST "ticks_per_beat 480"
#00002: 4
#BPM01: 142
#00008: 01
#TIL00: ""
#VOLUME: ""
#HISPEED 00
#MEASUREHS 00
#0121a:14
#01210:41
#0131a:14
#01414:14
#01514:14
#01618:14
#01718:14
#01812:14
#01912:14
#02214:14
#02318:14
#02618:14
#03012:0016
#03018:26
#03010:41
#03118:16
#03112:0016
#03218:16
#03212:0016
#03412:16
#03418:0016
#03512:16
#03518:0016
#03612:16
#03618:0016
#03818:16
#03812:0016
#03810:41
#03918:1616
#04012:16
#04018:0016
#04112:1616
#04218:16
#04212:0016
#04318:1616
#04412:16
#04418:0016
#04512:16
#04518:0016
#05418:0016
#05412:26
#0541f:21
#05512:16
#05518:0016
#05510:41
#05612:1616
#05818:16
#05812:0016
#05918:16
#05912:0016
#06018:1616
#06212:1616
#06318:1616
#06412:16
#06418:0016
#06512:1616
#06618:1616
#06712:1616
#06818:16
#06812:0016
#06918:1616
#07814:14
#07918:14
#08012:14
#0811a:14
#08214:14
#08314:14
#08418:14
#0461f:11
#02010:41
#07010:41
#0043a0:14
#0053a0:24
#006320:14
#007320:24
#008380:14
#009380:24
#010340:14
#011340:24
#0203a0:14
#0213a0:24
#024320:14
#025320:24
#027340:14
#027330:0034
#028320:34
#029320:24
#033380:1626
#037320:16362600
#046320:14
#047320:24
#0483a0:14
#0493a0:24
#050340:14
#051340:24
#052380:14
#053380:24
#057320:1626
#061380:16362600
#070320:14
#071340:34
#072320:34
#073320:24
#0743a0:14
#075380:34
#0763a0:34
#0773a0:24
#085380:14000024
