This file was generated by Ched 2.7.0.0.
#TITLE ""
#ARTIST ""
#DESIGNER ""
#DIFFICULTY 0
#PLAYLEVEL
#SONGID ""
#WAVE ""
#WAVEOFFSET 0
#JACKET ""
#REQUEST "ticks_per_beat 480"
#00002: 4
#BPM01: 142
#00008: 01
#TIL00: ""
#VOLUME: ""
#HISPEED 00
#MEASUREHS 00
#00117:12
#00115:000000000016000000000000
#00217:00000012
#0041a:12000000000000001200000000000052
#00414:1212
#00416:00000012000000000000001200000000
#00418:0012001200120012
#0081a:12001252
#00814:12521200
#00816:0012001200000000
#00818:0000000000120012
#0081b:00230000
#00812:00000023
#00815:00000052000000000000000000000000
#00819:00000000000000000000005200000000
#00914:1200521200000000
#00918:0000001200000012
#0091b:00000000230000000012000000000000
#00916:0012000000000000
#0091a:12
#00912:00000023
#00915:00000052000000000000000000000000
#01014:1200521212000000
#0101a:12001252
#0101b:0000230000000013
#01016:0012000000000000
#01018:0000000000120000
#01012:00000023
#01015:00000052000000000000000000000000
#01019:00000000000000000000005200000000
#0121b:23000000130000130013001300001300
#01216:23001300001300000000000000000000
#01210:41
#00518:0000001200001212
#00516:12
#00515:00000012000000000000000000000000
#00519:00000012000000000000000000000000
#00514:0000001200000000
#0051c:52
#01512:0013000000130000
#0151a:0000000000000014
#01516:23000013
#01517:0013000000000000
#0151b:23130000
#01913:00000000000000000012000000000000
#01918:00000022000000000000000012000000
#01916:00000012000022000000000000000000
#01915:22
#01919:22
#02015:00130000
#02016:0000000000130000
#02014:00000013
#02019:00000000000000000000000000130000
#02017:0013000000000000
#02018:0013
#02012:23
#02013:0000002300000000
#02010:41
#02118:0013000000000013
#02119:0013
#02112:0000000000130000
#02115:00000013
#0211b:0000002300001300
#02116:00130000
#0211a:23
#0251b:0000000000130000
#02518:00000013
#02515:0014000000000013
#02512:0000002400001300
#02514:0014
#02517:00140000
#02513:24
#02417:00140000
#02416:0000000000140000
#02418:00000014
#02414:00000000000000001400000000140000
#02415:0014000000000000
#0241a:24
#02419:0000002400000000
#02612:13140000
#0261a:00000014
#02615:0000001300000000
#02618:0000000000000013
#02718:13
#0271b:00130013
#02714:0014
#02712:00130014
#0281b:0013
#02818:25
#02814:24
#03015:0013130000000000
#0301b:0000001313000000
#03016:0000000013000013
#03012:0000000000131300
#03018:00000013000000000000000000000000
#03017:00000013
#0301a:24
#03010:41
#03118:0013130000000000
#03115:00000013000000000000000000000000
#03117:0000000000000013
#03112:2400001300001300
#0311b:0013
#03418:0013130000000000
#03412:2400001313000000
#03417:0000000013000013
#0341b:0000000000131300
#03415:00000013000000000000000000000000
#03416:00000013
#03515:0013130000000000
#0351b:0000001300001300
#03518:00000013000000000000000000000000
#03512:0013
#03516:0000000000000013
#0351a:24
#02917:0000000000000013
#02915:00000022
#02919:00000022
#03316:0000000000000013
#03312:00001313
#0331b:000000000000000000000000000000000000000000000000000000000000000000000000000000000000000000000000000000000000000000000000000000000000000000000000000000000000000000000000000000000000000000000000000000000000000000000000000000000000000000000000000000000000000000000000000000000000000000000000000000000000000000000000000000000000000000000000000000000000000000000000000000000000000000000000000000000000000000000000000000000000000000000000000000000000000000000000000000000000000000000000000000000000000000000000000000000000000000000000000000000000000000000000000000000000000000000000000000000000000000000000000000000000000000000000000000000000000000000000000000000000000000000000000000000000000000000000000000000000000000000000000000000000000000000000000000000000000000000000000000000000000000000000000000000000000000000000000000000000000000000000000000000000000000000000000000000000000000000000000000000000000000000000000000000000000000000000000000000000000000000000000000000000000000000000000000000000000000000000000000000000000000000000000000000000000000000000000000000000000000000000000000000000000000000000000000000000000000000000000000000000000000000000000000000000000000000000000000000000000000000000000000000000000000000000000000000000000000000000000000000000000000000000000000000000000000000000000000000000000000000000000000000000000000000000000000000000000000000000000000000000000000000000000000000000000000000000000000000000000000000000000000000000000000000000000000000000000000000000000000000000000000000000000000000000000000000000000000000000000000000000000000000000000000000000000000000000000000000000000000000000000000000000000000000000000000000000000000000000000000000000000000000000000000000000000000000000000000000000000000000000000000000000000000000000000000000000000000000000000000000000000000000000000000000000000000000000000000000000000000000000000000000000000000000000000000000000000000000000000000000000220000000000000000000000000000000000000000000000000000000000000000000000000000000000000000000000000000000000000000000000000000000000000000000000000000000000000000000000000000000000000000000000000000000000000000000000000000000000000000000000001200000000000000000000000000000000000000000000000000000000000000000000000000000000000000000000000000000000000000000000000000000000000000000000000000000000000000000000000000000000000000000000000000000000000000000000000000000000000000000000000000000000000000000000000000000000000000000000000000000000000000000000000000000000000000000000000000000000000000000000000000000000000000000000000000000000000000000000000000000000000000000000000000000000000000000000000000000000000000000000000000000000000000000000000000000000000000000000000000000000000000000000000000000000000000000000000000000000000000000000000000000000000000000000000000000000000000000000000000000000000000000000000000000000000000000000000000000000000000000000000000000000000000000000000000000000000000000000000000000000000000000000000000000000000000000000000000000000000000000000000000000000000000000000000000000000000000000000000000000000000000000000000000000000000000000000000000000000000000000000000000000000000000000000000000000000000000000000000000000000000000000000000000000000000000000000000000000000000000000000000000000000000000000000000000000000000000000000000000000000000000000000000000000000000000000000000000000000000000000000000000000000000000000000000000000000000000000000000000000000000000000000000000000000000000000000000000000000000000000000000000000000000000000000000000000000000000000000000000000000000000000000000000000000000000000000000000000000000000000000000000000000000000000000000000000000000000000000000000000000000000000000000000000000000000000000000000000000000000000000000000000000000000000000000000000000000000000000000000000000000000000000000000000000000000000000000000000000000000000000
#03318:0013000000000000
#03315:00000013000013000000000000000000
#0371b:13000000000000001300000000000052
#03712:00130000
#03718:00000012
#03716:2323
#03717:00230000
#03719:00000000000000000000000000520000
#0371a:0000000000000052
#00614:1212
#0061a:1212
#00618:00000012000000000000001200000000
#00616:0012001200120012
#03818:00001300000000000000001300001313
#03815:00000013000013130000130000000000
#0381b:00130000
#0381a:0014
#03812:24000013
#03810:41
#03912:14001353
#03915:00000013000013000000000000000000
#0391b:0000130000130000
#03918:00001300000000130000000013000000
#03914:00000000000000000053005300000000
#03916:0000000000530000
#04012:0013230000132300
#04017:00000013000000000000000000000000
#0401b:2300001313000000
#04015:2313
#04018:00000013
#04112:0013230000002300
#04117:00000013000000000000000000000000
#04114:0000001300000000
#04119:0000001300000000
#0411b:2313
#04115:23000000000000000000000000000013
#04118:0000000000000013
#04116:0013
#04215:00001300000000000000001300001313
#04212:00132400
#04218:00000000000013130000130000000000
#0421b:00000013
#0421a:24
#04318:00000013000013000000000000000000
#04315:00001300000000130000000013000000
#04312:0000130000130000
#0431a:24
#0431b:00002353
#04319:00000000000000000063006300000000
#04317:0000000000630000
#0441b:0013230000132300
#04416:00000013000000000000000000000000
#04412:2300001313000013
#04418:2300000013000013
#04415:00000013
#04515:13000000130000000023002300000000
#04512:0013001300000000
#04518:0013001300000000
#0451b:2300230023232300
#04613:00001200001200000000000000000000
#04617:00000000120000120012001200001200
#0461f:11
#0461a:24
#04612:24
#05019:00001200000000120000000000000000
#05017:00000000120000000012000000000000
#0501b:00000000001200000000000000000000
#05015:00000000000000000000001200000000
#05016:0000000000000013
#0501a:24
#05012:24
#05315:00000013
#05318:00000013
#05312:24
#0531a:24
#0541b:0013230000002300
#05416:00000013000000000000000013000000
#05414:0000001300000000
#05412:0013
#05417:0013
#05419:0000000000130000
#0541f:21
#0551b:0013230000002300
#05516:00000013000000000000000000000000
#05512:2300000013000013
#05517:2313
#05514:0000001300000000
#05519:0000001300000000
#05510:41
#05615:00001300000000000000000013000013
#05616:0000001313000000
#05618:0000130000130013
#05617:13
#05715:0013130000000000
#05716:0013
#05718:13000013000013000000000000000000
#05717:00000023
#05812:0013230000002300
#05817:00000013000000000000000013000000
#05819:0000001300000000
#0581b:2313
#05816:2313
#05814:0000000000130000
#05912:0013230000002300
#05917:00000013000000000000000000000000
#0591b:2300000013000013
#05916:2313
#05919:0000001300000000
#05914:0000001300000000
#06018:0013000013000000
#06017:0000001300000000
#06015:1300000000130000
#06016:0000000000000013
#06014:00530000130000000000000000000000
#06019:00000000000000000053000013000000
#06013:00005300005300000000000000000000
#06012:0000005300000000
#0601a:00000000000000000000530000530000
#0601b:0000000000000053
#06112:1313
#0611b:00130000
#06116:00230012
#06117:2323
#06115:00000000000000000000000000520000
#06114:0000000000000052
#06113:00000000000000000000000000000052
#06216:00001300000000130013000000000013
#06219:00000013000013001300000000001300
#06213:00130013
#0621a:24
#06718:00001300000000130013000000000000
#06716:00000013000013001300000000000000
#0671b:00130013
#06712:24
#06816:00000013000000000000000000001300
#06814:0000001300000000
#06817:23001313
#06812:23001323
#0681b:0013230000130013
#06917:13000000130000000023002300000000
#0691b:0013001300000023
#06916:0013001300000000
#06912:2300230023232300
#0731b:0013001300000000
#07318:0000000000000014
#07317:0013
#07316:0013000000001300
#07312:2300130000130000
#08117:00000012000000000000000000000000
#08118:12
#08113:0000002a00000000
#08314:12
#0831a:0000001200000000
#08316:00000012000012000000000000000000
#08318:0012000000000012
#00718:12
#00719:00000012000000000000000000000000
#00715:00000012000000000000000000000000
#00716:0000001200001200
#00714:12
#0071a:0000001200000000
#01417:23000000130000130013001300001300
#01412:23001300001300000000000000000000
#05217:00001200000000120000000000000000
#05215:00000000120000000012000000000000
#05219:00000000001200000000000000000000
#05213:00000000000000000000001200000000
#05214:0000000000000013
#0521a:24
#05212:24
#07712:24000000000000000012000000000000
#07718:00000022000000000000000012000000
#07716:00000012000022000000000000000000
#0771a:24
#01319:23000000130000130013001300001300
#01314:23001300001300000000000000000000
#04715:00001200001200000000000000000000
#04719:00000000120000120012001200001200
#04712:24
#0471a:24
#04817:00001200001200000000000000000000
#0481b:00000000120000120012001200001200
#0481a:24
#04812:24
#05118:00001200000000120000000000000000
#05116:00000000120000000012000000000000
#0511a:24000000001200000000000000000000
#05114:00000000000000000000001200000000
#05115:0000000000000013
#05112:24
#01612:23000000130000130013001300001300
#01617:23001300001300000000000000000000
#01816:23000000130000130013001300001300
#0181b:23001300001300000000000000000000
#01714:23000000130000130013001300001300
#01719:23001300001300000000000000000000
#0721b:0000000000000013
#07217:23001300000000130000000000000000
#07212:23001300000000130000000000000000
#07214:00000000000000000013000000000000
#07219:00000000000000000013000000000000
#0721a:00120000
#07215:00000000001200000000000000000000
#0721c:00000000000000000000001200000000
#07416:23001300120000130013001200001300
#0741b:23001300001200130013000000000000
#07616:23001300000000130000000000000000
#0761b:23001300000000130000000000000000
#07619:00000000001200000013000000000000
#07614:00000000120000000013000000000000
#07612:00000000000000000000001200001300
#07516:23001300000000130000000000000000
#0751b:23001300000000130000000000000000
#0751a:00000000001200000013000000000000
#07515:00000000120000000013000000000000
#07514:00000000000000000000001200001300
#07916:0000001200000012
#07918:0000001200000000
#07816:00000012000012000000120000000012
#07818:00001200000000000000001200001200
#07814:12
#0781a:0012
#0801a:12
#08018:00000012000012000000120000000000
#08014:0012
#08016:00001200000000000000001200000000
#08214:12
#08216:00000012000012000000120000000000
#0821a:0012
#08218:00001200000000000000001200001200
#06515:0000000000000013
#06518:00000000000000000000000000000013
#06516:2313
#06514:0000001300000000
#0651b:2313
#06519:0000001300000000
#06517:00000013000000000000000023000000
#06512:0013230000000000
#06617:00001300000000130013000000000013
#06614:00000013000013001300000000001300
#0661a:00130013
#06612:24
#0641b:2313
#06412:0013230000001300
#06414:0000000000130000
#06416:2313
#06419:0000001300000000
#06417:00000013000000000000000023000000
#06315:00001300000000130013000000000000
#06312:00130013
#06317:00000013000013001300000000000000
#0631a:24
#07017:23001300000000130013000000001300
#07012:23001300000000130013000000000000
#07018:00000000120000000000001200000000
#07013:00000000001200000000000000000000
#07010:41
#07117:23001300000000130000000000000000
#07112:23001300000000130000000000000000
#07113:00000000000000000013000000000000
#07118:00000000000000000013000000000000
#07119:0000120000000013
#07114:00000000001200000000000000000000
#0711a:00000000000000000000001200000000
#03616:0013000000000000
#0361b:13
#03615:0000001300000053
#0361a:00530000130000000000000000000000
#03617:0000000000130000
#03612:0013
#03618:0000005300000013
#03613:00000000000000000053000013000000
#03619:00005300005300000000000000000000
#03614:00000000000000000000530000530000
#03219:0000001300000000
#03218:0013000000000000
#03214:0000000000000013
#03215:0000000000130000
#03212:13
#03213:00130000
#0321b:0013
#0321a:00000013
#08414:1200000000000012
#08416:00000012000012000000120000000000
#0841a:0000000012000012
#08418:00001200000000000000001200000000
#0221b:13
#02214:0000000000130013
#02216:00140014
#0231b:0013
#02316:00140000
#02315:00000000000000000000230000230023
#02318:0000000000002323
#00015:26
#01115:23
#04912:24
#0491a:24
#08516:22
#00055:56
#00157:22
#00155:000000000056000000000000
#00257:00000022
#00958:0000006200000000
#0095b:00000000000000000022000000000000
#01155:00000033
#01158:0000000000430000
#01552:0013000000630000
#01557:0063000000130000
#01556:00000023
#0155b:00230000
#01953:00000000000000000022000000000000
#01956:0000005200000000
#01958:00000042
#02155:00000013
#02558:00000013
#02652:00140000
#0265a:00000014
#02758:63
#0275b:00230000
#02754:0054
#02752:00000024
#0285b:0023
#02858:55
#02854:14
#0305a:14
#03152:1400005300000000
#0315b:0053
#0355b:0000006300000000
#03552:0063
#0355a:14
#03452:14
#0375b:1313
#03752:00130000
#03756:0063
#0335b:000000000000000000000000000000000000000000000000000000000000000000000000000000000000000000000000000000000000000000000000000000000000000000000000000000000000000000000000000000000000000000000000000000000000000000000000000000000000000000000000000000000000000000000000000000000000000000000000000000000000000000000000000000000000000000000000000000000000000000000000000000000000000000000000000000000000000000000000000000000000000000000000000000000000000000000000000000000000000000000000000000000000000000000000000000000000000000000000000000000000000000000000000000000000000000000000000000000000000000000000000000000000000000000000000000000000000000000000000000000000000000000000000000000000000000000000000000000000000000000000000000000000000000000000000000000000000000000000000000000000000000000000000000000000000000000000000000000000000000000000000000000000000000000000000000000000000000000000000000000000000000000000000000000000000000000000000000000000000000000000000000000000000000000000000000000000000000000000000000000000000000000000000000000000000000000000000000000000000000000000000000000000000000000000000000000000000000000000000000000000000000000000000000000000000000000000000000000000000000000000000000000000000000000000000000000000000000000000000000000000000000000000000000000000000000000000000000000000000000000000000000000000000000000000000000000000000000000000000000000000000000000000000000000000000000000000000000000000000000000000000000000000000000000000000000000000000000000000000000000000000000000000000000000000000000000000000000000000000000000000000000000000000000000000000000000000000000000000000000000000000000000000000000000000000000000000000000000000000000000000000000000000000000000000000000000000000000000000000000000000000000000000000000000000000000000000000000000000000000000000000000000000000000000000000000000000000000000000000000000000000000000000000000000000000000000000000000000000000000000000000000000000000000000000000000000000000000000000000000000000000000000000000000000000000000000000000000000000000000000000000000000000000000000000000000000000000000000000000000000000000000000000000000000000000000000000000000000000000000000000002200000000000000000000000000000000000000000000000000000000000000000000000000000000000000000000000000000000000000000000000000000000000000000000000000000000000000000000000000000000000000000000000000000000000000000000000000000000000000000000000000000000000000000000000000000000000000000000000000000000000000000000000000000000000000000000000000000000000000000000000000000000000000000000000000000000000000000000000000000000000000000000000000000000000000000000000000000000000000000000000000000000000000000000000000000000000000000000000000000000000000000000000000000000000000000000000000000000000000000000000000000000000000000000000000000000000000000000000000000000000000000000000000000000000000000000000000000000000000000000000000000000000000000000000000000000000000000000000000000000000000000000000000000000000000000000000000000000000000000000000000000000000000000000000000000000000000000000000000000000000000000000000000000000000000000000000000000000000000000000000000000000000000000000000000000000000000000000000000000000000000000000000000000000000000000000000000000000000000000000000000000000000000000000000000000000000000000000000000000000000000000000000000000000000000000000000000000000000000000000000000000000000000000000000000000000000000000000000000000000000000000000000000000000000000000000000000000000000000000000000000000000000000000000000000000000000000000000000000000000000000000000000000000000000000000000000000000000000000000000000000000000000000000000000000000000000000000000000000000000000000000000000000000000000000000000000000000000000000000000000000000000000000000000000000000000000000000000000000000000000000000000000000000000000000000000000000000000000000000000
#0385b:00130000
#03852:14000013
#0395b:00130000
#03952:00000013
#04055:13
#0405b:13
#04155:13
#0415b:1323
#04252:00130000
#0425b:00000013
#0425a:14
#04458:13
#04452:13
#0455b:00000013
#04952:54
#0495a:54
#05352:54
#0535a:64
#05358:00000053
#05355:00000053
#05452:13
#0545b:13
#05557:1313
#05552:1323
#05756:0053
#0575b:0013
#05755:00530000
#05758:6300005300000000
#05956:1313
#0595b:1323
#05856:13
#0585b:13
#06152:1313
#0615b:00130000
#06157:0053
#06253:00130013
#0675b:00130013
#06852:13
#06857:13
#06952:00000013
#0695b:0000000000000013
#0735b:0013005300130000
#07357:0023
#07356:0053001300002300
#07352:0000230000630013
#08356:0000005200000000
#00554:0000005200000000
#0075a:0000005200000000
#08558:0000000000420000
#08556:00000032
#07752:00000000000000000022000000000000
#07758:00000012
#07756:0000005200001200
#01256:0000000000000013
#0125b:0000000000000013
#01452:0000000000000013
#01457:0000000000000013
#04653:0000000000000012
#04657:0000000000000012
#05059:0000000000000013
#05056:0000000000000013
#01359:0000000000000013
#01354:0000000000000013
#04759:0000000000000012
#04755:0000000000000012
#0485b:0000000000000012
#04857:0000000000000012
#05155:0000000000000013
#05158:0000000000000013
#05656:0063
#05655:00000063
#05658:00530000
#05657:53
#01652:0000000000000013
#01657:0000000000000013
#01856:0000000000000013
#0185b:0000000000000013
#01754:0000000000000013
#01759:0000000000000013
#07256:0000000000000013
#0725b:0000000000000013
#07554:0000000000000013
#07559:0000000000000013
#07456:0000000000000013
#0745b:0000000000000013
#04352:00130000
#0435b:00000013
#07956:0000005200000000
#07958:0000005200000000
#06556:1323
#0655b:1313
#06456:13
#0645b:13
#0665a:00130013
#06352:00130013
#07159:0000000000000013
#07154:0000000000000013
#07057:0000000000000013
#07052:0000000000000013
#03252:23
#03253:00230000
#0325b:0023
#0325a:00000023
#02256:00140014
#02356:00140000
#000350:16
#001370:52
#001350:000000000036000000000000
#002370:00000052
#003320:2c
#003370:00001222
#005340:0000001200000000
#005320:00000022
#0073a0:0000001200000000
#0073c0:00000022
#009380:0000001200002200
#0093b0:00000000000000000052000000000000
#011380:1300000000230000
#011351:13000023
#012361:0000000000001323
#013341:0000000000001323
#014321:0000000000001323
#015371:0013003300230000
#0153b1:00530000
#015320:0000001300330023
#015360:00000053
#016370:0000000000001323
#017390:0000000000001323
#0183b0:0000000000001323
#019380:00000012000022000000000000000000
#019361:0000001200002200
#019331:00000000000000000052000000000000
#020341:0000000000000013
#021341:23
#022321:13332300
#0223b0:00001333
#0233b0:23
#023321:13332300
#024381:0000000000000014
#025381:24
#026381:13332300
#026350:00001333
#027350:23
#027381:1323
#0273b1:00530000
#027340:0014
#027320:00000054
#028340:24
#028381:15
#0283b1:0053
#029361:24
#029321:0000000000000013
#030321:23
#0303b1:0000000000000013
#0313b1:23
#031321:0000001300000000
#031361:0023
#0313b0:0013
#031370:00000023
#032320:13
#032350:0023000000000000
#032330:00130000
#032360:0000002300000000
#0323b0:0013
#032380:0000000000230000
#0323a0:00000013
#032370:0000000000000023
#033320:1323000000000000
#0333b0:0000132300000000
#0333b0:000000000000000000000000000000000000000000000000000000000000000000000000000000000000000000000000000000000000000000000000000000000000000000000000000000000000000000000000000000000000000000000000000000000000000000000000000000000000000000000000000000000000000000000000000000000000000000000000000000000000000000000000000000000000000000000000000000000000000000000000000000000000000000000000000000000000000000000000000000000000000000000000000000000000000000000000000000000000000000000000000000000000000000000000000000000000000000000000000000000000000000000000000000000000000000000000000000000000000000000000000000000000000000000000000000000000000000000000000000000000000000000000000000000000000000000000000000000000000000000000000000000000000000000000000000000000000000000000000000000000000000000000000000000000000000000000000000000000000000000000000000000000000000000000000000000000000000000000000000000000000000000000000000000000000000000000000000000000000000000000000000000000000000000000000000000000000000000000000000000000000000000000000000000000000000000000000000000000000000000000000000000000000000000000000000000000000000000000000000000000000000000000000000000000000000000000000000000000000000000000000000000000000000000000000000000000000000000000000000000000000000000000000000000000000000000000000000000000000000000000000000000000000000000000000000000000000000000000000000000000000000000000000000000000000000000000000000000000000000000000000000000000000000000000000000000000000000000000000000000000000000000000000000000000000000000000000000000000000000000000000000000000000000000000000000000000000000000000000000000000000000000000000000000000000000000000000000000000000000000000000000000000000000000000000000000000000000000000000000000000000000000000000000000000000000000000000000000000000000000000000000000000000000000000000000000000000000000000000000000000000000000000000000000000000000000000000000000000000000000000120000000000000000000000000000000000000000000000000000000000000000000000000000000000000000000000000000000000000000000000000000000000000000000000000000000000000000000000000000000000000000000000000000000000000000000000000000000000000000000000005200000000000000000000000000000000000000000000000000000000000000000000000000000000000000000000000000000000000000000000000000000000000000000000000000000000000000000000000000000000000000000000000000000000000000000000000000000000000000000000000000000000000000000000000000000000000000000000000000000000000000000000000000000000000000000000000000000000000000000000000000000000000000000000000000000000000000000000000000000000000000000000000000000000000000000000000000000000000000000000000000000000000000000000000000000000000000000000000000000000000000000000000000000000000000000000000000000000000000000000000000000000000000000000000000000000000000000000000000000000000000000000000000000000000000000000000000000000000000000000000000000000000000000000000000000000000000000000000000000000000000000000000000000000000000000000000000000000000000000000000000000000000000000000000000000000000000000000000000000000000000000000000000000000000000000000000000000000000000000000000000000000000000000000000000000000000000000000000000000000000000000000000000000000000000000000000000000000000000000000000000000000000000000000000000000000000000000000000000000000000000000000000000000000000000000000000000000000000000000000000000000000000000000000000000000000000000000000000000000000000000000000000000000000000000000000000000000000000000000000000000000000000000000000000000000000000000000000000000000000000000000000000000000000000000000000000000000000000000000000000000000000000000000000000000000000000000000000000000000000000000000000000000000000000000000000000000000000000000000000000000000000000000000000000000000000000000000000000000000000000000000000000000000000000000000000000000000000000000000000
#0333a0:00000000000000000054000000000000
#033370:00000022
#0333b0:0000000000000013
#0343b0:23
#034320:0000000000000013
#035320:23
#0353b0:0000001300000000
#035370:0023
#035321:0013
#035361:00000023
#037361:0013
#037321:00000023
#0393b1:0000000000000013
#0403b1:23
#039350:0000000000000013
#040350:23
#0403b0:0000000000000013
#0413b0:23
#040351:0000000000000013
#041351:23
#0413b1:0013
#041371:00000023
#043321:0000000000000013
#044321:23
#043380:0000000000000013
#044380:23
#046330:0000000000001222
#047350:0000000000001222
#048370:0000000000001222
#049320:14
#049360:0052000000002200
#0493a1:14
#049381:0052000000002200
#050391:0000000000001323
#051381:0000000000001323
#052371:0000000000001323
#053321:14
#053361:0052000000520000
#053341:0000000000000000000000000000000000000000005300000000000000000000
#053351:00000000000000000000005333000000
#054321:23
#0533a0:14
#053380:00005200000000005253000033000000
#053390:0000000000000000000000000000000000530000000000000000000000000000
#0543b0:23
#054320:0000000000000013
#055320:23
#054371:0000000000000013
#055371:23
#055321:0013
#055361:00000023
#056371:13
#0563a1:0023000000000000
#056381:00130000
#0563b1:0000002300000000
#056361:0013
#056331:0000000000230000
#056351:00000013
#056321:0000000000000023
#057381:13
#0573b1:0023000000000000
#057351:00130000
#057321:0000002300000000
#057380:0000001300000000
#0573b0:0023
#057361:0013
#057321:00000023
#0573b1:0000000000000013
#0583b1:23
#057360:0000000000000013
#058360:23
#0583b0:0000000000000013
#0593b0:23
#058361:0000000000000013
#059361:23
#0593b1:0013
#059371:00000023
#061371:0013
#0613b1:00000023
#062391:0000000000132300
#063371:0000000000132300
#0633b1:0000000000000013
#0643b1:23
#063360:0000000000000013
#064360:23
#0643b0:0000000000000013
#0653b0:23
#064361:0000000000000013
#065361:23
#065361:0013
#065321:00000023
#066341:0000000000132300
#067361:0000000000132300
#067371:0000000000000013
#068371:23
#067320:0000000000000013
#068320:23
#070320:0000000000001323
#071340:0000000000001323
#072360:0000000000001323
#073360:0013002300000000
#073320:00530000
#0733b1:0000001300230000
#073371:0053
#073320:0000000000130023
#073360:00000053
#0743b0:0000000000001323
#075390:0000000000001323
#076370:0000000000001323
#077380:00000012000022000000000000000000
#077361:0000001200002200
#077321:00000000000000000052000000000000
#079381:1200003200000000
#0793b1:00000022
#079360:00000012000032000000000000000000
#079330:00000022
#080360:0000000000000012
#081360:22
#081330:0000001a00000000
#081350:000000000000000000000000000000000000000000000000000000000000000000000000000000000000000000000000000000000000000000000000000000000000000000000000000000000000000000000000000000000000000000000000000000000000000000000000000000000000000000000000000000000000000000000000000000000000000000000000000000000000000000000000000000000000000000000000000000000000000000000000000000000000000000000000000000000000000000000000000000000000000000000000005600000000000000000000000000000000000000000000000000000000000000000000000000000000000000000000000000000000000000000000000000000000000000000000000000000000000000000000000000000000000000000000000000000000000000000000000000000000000000000000000000000000000000000000000000000000000000000000000000000000000000000000000000000000000000000000000000000000000000000000000000000000000000000000000000000000000000000000000000000000000000000000000000000000000000000000000000000000000000000000000000000000000000000000000000000000000000000000
#081370:000000000000000000000000000000000000000000000000000000000000000000000000000000000000000000000000000000000000000000000000000000000000000000000000000000000000000000000000000000000000000000000000000000000000000000000000000000000000000000000000000000000000000000000000000000000000000000000000000000000000000000000000000000000000000000000000000000000000000000000000000000000000000000000000000000000000000000000000000000000000000000000000000000000000000000000000000000000000000000000000000000000000000000000000000000000000000000000000000000000000000000000000000000000000000000000000000000000000000000000000000000000000000000000000000000000000000000000000000000000000000000000000000000000000000000000000000000000000000000000000000000000000000000000000000000000000000000000000000000000000000000000000000000000000000000000000000000000000000000000000000000000000000000000000000000520000000000000000000000000000000000000000000000000000000000000000000000000000000000000000000000000000000000000000000000000000000000000000000000000000000000000000000000000000000000000000000000000000000000000000000000000000000000000000000000000000000000000000000000000052000000000000000000000000000000000000000000000000000000000000000000000000000000000000000000000000000000000000000000000000005200000000000000000000000000000000000000000000000000000000000000000000000000000000000000000000000000000000000000000000000000000000000000000000000000000000000000000000000000000000220000000000000000000000000000000000000000000000000000000000000000000000000000000000000000000000000000000000000000000000000000000000000000000000000000000000000000000000000000000000000000000000000000000000000000000000000000000000000000000000000000000000000000000000000000000000000000000000000000000000000000000000000000000000000000000000000000000000000000000000000000000000000000000000000000000000000000000000000000000000000000000000000000000000000000000000000000000000000000000000
#081340:0000000000000000000000000000000000000058005800000000000000000000
#083360:0000001200000000
#083320:00000022
#085360:12000022
#085381:1200000000220000
#004980:0000000000000012
#0059c0:22
#008960:0012000000000000
#008940:00220000
#008980:0000000000120000
#0089a0:00000022
#009960:0012000000000000
#009940:00220000
#010960:0012000000000000
#010940:00220000
#010980:0000000000120000
#0109a0:00000022
#0369b0:13
#036990:0023000000000000
#0369a0:00130000
#036980:0000002300000000
#036920:0013
#036940:0000000000230000
#036930:00000013
#036950:0000000000000023
#037980:00000012
#0379b0:00000000000000000000000000000022
#039920:00001323
#039960:0000000000530000
#0439b0:00001323
#043970:0000000000530000
#060950:13
#060930:0023000000000000
#060940:00130000
#060920:0000002300000000
#060980:0013
#0609a0:0000000000230000
#060990:00000013
#0609b0:0000000000000023
#061960:00000012
#061930:00000000000000000000000000000022
