This file was generated by Ched 2.7.0.0.
#TITLE ""
#ARTIST ""
#DESIGNER ""
#DIFFICULTY 0
#PLAYLEVEL
#SONGID ""
#WAVE ""
#WAVEOFFSET 0
#JACKET ""
#REQUEST "ticks_per_beat 480"
#00002: 4
#BPM01: 142
#00008: 01
#TIL00: ""
#VOLUME: ""
#HISPEED 00
#MEASUREHS 00
#00117:12
#00116:000000000014000000000000
#00217:00000012
#0041a:12
#00416:00000012000000000000001200000012
#00418:0000001200120012
#00414:0012
#00816:00000012000000000000001200000000
#00818:0012001200120012
#00814:1212
#00914:12
#00916:00000012000000000000000000001200
#00918:00001200000000000012000000000000
#0091a:0000001200000000
#01018:0000001200120012
#01016:00000012000000000000001200000000
#0101a:12
#01014:0012
#00518:0000000000000012
#0051a:12
#00517:00000012000000000000000000000000
#01218:00130000
#01215:0013000000001300
#01210:41
#02018:00131300
#02015:0013000000130000
#0201b:23000013
#02012:0000002300000000
#02010:41
#02212:13
#02216:00140014
#02316:00140014
#02612:00140000
#0261a:00000014
#02718:13
#0271b:00130000
#02715:0013
#02712:00000013
#03118:0013001300000013
#03115:00131300
#03112:23
#0371b:1300000013000013
#03712:00130000
#03716:00000000000000000000000000000013
#03715:2323
#03718:00230000
#00614:1200000000000012
#00618:00000012000000000000001200000000
#00616:0000001200120000
#0061a:0012
#03218:0013001300130000
#03215:13130013
#03212:0000000013000013
#03812:0000000000000013
#03817:00000000000000000000000000000013
#0381b:23
#03810:41
#04015:0013000000130000
#04018:0000001300000000
#0401b:2313
#04012:00230023
#04115:0013000000000000
#0411b:2313
#04112:0000230000000013
#04117:00000000000000000000000000000013
#04118:0000001300000000
#04418:0013000000130013
#04415:0000001300002300
#04412:2313
#0441b:00230000
#04518:0013001300000000
#04515:23230000
#0451a:00000000000000000024002400000000
#04512:0000000024242400
#06112:1300000013000013
#0611b:00130000
#06117:23000000000000002300000000000013
#06116:00230000
#08113:12
#0811b:12
#08114:00000012000000000000000000000000
#0811a:00000012000000000000000000000000
#08314:12
#08318:00001200000000000012000000000000
#08316:00000012000000000000000000001200
#0831a:0000001200000000
#00718:12
#00716:00000012000000000000000000000000
#07816:0000001200120012
#07814:12
#07818:00000012000000000000001200000000
#0781a:0012
#07916:0000000000000012
#07915:12
#07919:12
#07914:00000012000000000000000000000000
#0791a:00000012000000000000000000000000
#0801a:12
#08016:00000012000000000000001200000000
#08018:0000001200120012
#08014:0012
#08214:1212
#08216:00000012000000000000001200000000
#0821a:0000001200000012
#08218:0012000000120000
#0841a:1212
#08416:0012000000120000
#08418:00000012000000000000001200000000
#08414:0000001200000012
#01118:0000000000130000
#01115:00000023
#01112:23
#0111b:23
#01315:00130000
#01318:0013000000001300
#01418:00130000
#01415:0013000000001300
#0151b:0013000000000000
#01515:0000001300000000
#01518:0000000000130000
#01512:0000000000000013
#01612:00000000000000130013001300000000
#01615:00130000
#0161b:00001300001300000000000000000000
#0171b:00000000000000130013001300000000
#01718:00130000
#01712:00001300001300000000000000000000
#01812:00000000000000130013001300000000
#01815:0000130000000013
#0181b:00001300001300000000000000000000
#01818:00000013
#01918:00000013000000000000000000000000
#01912:23
#0191b:23
#02418:00141400
#02414:0014000000140000
#0241a:24000014
#02412:0000002400000000
#0331b:13
#03318:0013000000000000
#03315:00130000
#03312:0000001300000000
#0331a:0022
#03015:0013001300130000
#0301b:2313
#03018:00130013
#03010:41
#02814:14
#02818:24
#03518:00131300
#03515:0013001300000013
#0351b:23
#03418:0013001300130000
#03412:2313
#03415:00130013
#03615:0013001300130000
#03618:13130013
#0361b:0013
#03612:0000000000000013
#0421b:0000000000000013
#04216:00000000000000000000000000000013
#04212:23
#04612:00000000130000130013001300000000
#04618:00001300001300000000000013000000
#0461f:11
#0471b:00000000130000130013001300000000
#04715:00001300001300000000000013000000
#04812:00000000130000130013001300000000
#04818:00001300001300000000000013000000
#04912:0013000000000000
#04918:0000001300000000
#04915:0000000000130000
#0491b:0000000000000013
#05018:00000000130000130013001300000000
#05012:00001300001300000000000000000000
#05015:00000013
#05115:00000000130000130013001300000000
#0511b:00001300001300000000000000000000
#05118:00000013
#05218:00000000130000130013001300001300
#05212:00001300001300000000000000000000
#05215:00000013
#06415:0013000000130000
#0641b:0000001300000000
#06418:2313
#06412:00230023
#06515:0013000000000000
#06516:00000000000000001300000000000013
#0651b:0000001300000013
#06518:23
#06512:00230000
#06818:0013000000130013
#06812:0000001300000000
#06815:23001323
#0681b:00230000
#06612:0000630000000013
#06617:00000000000000000000000000000013
#0661a:00630000000000000000630000000000
#06619:00006300000000000000006300000000
#06613:00000000006300000000000000000000
#06614:0000006300000000
#06615:00000000000000630000000000000000
#06618:00000063
#0661b:63000000000000000063000000000000
#06918:0013001300000000
#06915:23230000
#0691a:00000000000000000024002400002400
#06912:0000000024242400
#07018:00000000000000130013001300000000
#0701b:00130000
#07015:00001300001300000000000000000000
#07012:00000013
#07010:41
#0731a:0014000000000000
#07314:0000001400000000
#07318:0000000000140000
#07312:0000000000000014
#07415:00000000000000130013001300000000
#07412:00130000
#07418:00000000001300000000000000000000
#0741b:0013000000001300
#07115:00000000000000130013001300000000
#07112:00130000
#07118:00001300001300000000000000000000
#0711b:00000013
#07218:00000000000000130013001300000000
#0721b:00130000
#07215:00001300001300000000000000000000
#07212:00000013
#07518:00000000000000130013001300000000
#0751b:00130000
#07515:00000000001300000000000000000000
#07512:0013000000001300
#07615:00000000000000130013001300001300
#07612:00130000
#07618:00000000001300000000000000000000
#0761b:0013000000001300
#07718:00000012000000000000000000000000
#07712:24
#0771a:24
#08518:0000000000120000
#08516:00000022
#08512:23
#0851b:23
#05418:00231300
#05415:0013001300130000
#0541b:00000023
#0541f:21
#0541a:64
#05512:2413
#0551b:0000000000000013
#05518:0023001300000000
#05515:00130000
#05510:41
#05716:00231300
#05719:0013000000000000
#0571b:0000001300000000
#05714:13
#05616:13
#0561b:0013000000000000
#05619:0000001300000000
#05612:00001323
#05617:0000000000130013
#05614:00230000
#05912:2413
#0591b:0000000000000013
#05918:0023001300000000
#05915:00130000
#05818:00231300
#05815:0013001300130000
#0581a:24
#0581b:00000023
#06016:13
#0601b:0013000000000000
#06019:0000001300000000
#06012:00001323
#06017:0000000000130013
#06014:00230000
#02514:00141400
#02518:0014000000140000
#02512:24000014
#0251a:0000002400000000
#0531a:24000000000000000000000014545454
#05312:24
#05319:0000000000000000000000000000000000000000000000000054005400540054
#06212:63006313
#06218:00000000000000000063000000001300
#06215:00000063006300000000000000000013
#06213:00630000000000630000000000000000
#06214:0063006300000000
#06216:00630000
#06219:0000000000630000
#0621a:00000000000000000000006300000000
#0621b:00000063
#06217:0063
#06318:00000063006300000000000013000000
#06315:00000000000000000063000000001300
#0631a:00630000000000630000000000000000
#06319:0063006300000000
#06317:00630000
#06314:0000000000630000
#06313:00000000000000000000006300000000
#06312:00000063
#0631b:6363
#06316:0063
#0671b:0000630000000013
#06713:00630000000000000063000000000000
#06714:0063000000630000
#06715:00000063000000000000006300000000
#0671a:00000000006300000000000000000000
#06719:0000006300000000
#06718:00000000000000630000000000000000
#06716:00000063
#06712:6363
#02115:00131300
#02118:0013000000130000
#02112:23000013
#0211b:0000002300000000
#00016:24
#03912:23
#0431b:23
#00056:54
#00157:22
#00156:000000000054000000000000
#00257:00000022
#02758:63
#0275b:00230000
#02755:0053
#02752:00000023
#03155:0053
#03152:13
#0405b:13
#0415b:1323
#0835a:0000005200000000
#08358:00000000000000000022000000000000
#01155:00000013
#01158:0000000000130000
#0155b:0013000000000000
#01555:0000001300000000
#01558:0000000000130000
#01552:0000000000000013
#01658:0000000000000013
#0205b:00000013
#0245a:00000014
#02352:00000013
#02356:00000014
#02858:54
#02854:54
#0305b:13
#03558:0063
#0355b:13
#03452:13
#04452:13
#04552:00000014
#04658:00000063
#0465b:0000000000000013
#04755:00000053
#04752:0000000000000013
#04858:00000063
#0485b:0000000000000013
#04952:0013000000000000
#04958:0000001300000000
#04955:0000000000130000
#0495b:0000000000000013
#05055:00000053
#05052:0000000000000013
#05158:00000063
#0515b:0000000000000013
#06556:0023
#06558:13
#06855:13
#06952:00000014
#0695a:0000000000000014
#07052:00000053
#07055:0000000000000013
#0735a:0014000000000000
#07354:0000001400000000
#07358:0000000000140000
#07352:0000000000000014
#0745b:00000063
#07458:0000000000000013
#0715b:00000063
#07158:0000000000000013
#07252:00000053
#07255:0000000000000013
#07552:00000053
#07555:0000000000000013
#08556:00000012
#08558:0000000000120000
#0095a:0000005200000000
#00958:00000000000000000022000000000000
#05552:1423
#05756:0063
#05952:1423
#0585a:14
#01252:0000000000000013
#01255:00000053
#01358:00000063
#0135b:0000000000000013
#01455:00000053
#01452:0000000000000013
#01755:0000000000000013
#02552:00000014
#0545a:14
#06458:13
#02152:00000013
#000360:14
#001370:52
#001360:000000000034000000000000
#002370:00000052
#003350:26
#005340:0000001200002200
#0073a0:0000001200002200
#0093a0:0000001200002200
#009380:00000000000000000052000000000000
#012350:00000000001300330033003333000000
#012320:0000000000000023
#013380:00000000001300330033003333000000
#0133b0:0000000000000023
#014350:00000000001300330033003333000000
#014320:0000000000000023
#016380:0000000000001323
#017350:0000000000001323
#019350:0000001300002300
#0223b0:13332300
#022321:00001333
#023321:23
#0233b0:13332300
#023321:00001323
#026381:13332300
#026350:00001333
#027350:23
#027381:1323
#0273b1:00530000
#027350:0013
#027320:00000053
#028340:34
#029320:23
#028381:14
#0293b1:23
#0293b1:0000000000000013
#0303b1:23
#030321:0000000000000013
#031321:23
#031351:0013
#031321:00000023
#0333a1:0012
#033381:00000000000000000056000000000000
#033391:000000000000000000000000000000000000000000000000000000000000000000000000000000000000000000000000000000000000000000000000000000000000000000000000000000000000000000000000000000000000000000000000000000000000000000000000000000000000000000000000000000000000000000000000000000000000000000000000000000000000000000000000000000000000000000000000000000000000000000000000000000000000000000000000000000000000000000000000000000000000000000000000000000000000000000000000000000000000000000000000000000000000000000000000000000000000000000000000000000000000000000000000000000000000000000000000000000000000000000000000000000000000000000000000000000000000000000000000000000000000000000000000000000000000000000000000000000000000000000000000000000000000000000000000000000000000000000000000000000000000000000000000000000000000000000000000000000000000000000000000000000000000000000000000000000000000000000000000000000000000000000000000000000000000000000000000000000000000000000000000000000000000000000000000000000000000000000000000000000000000000000000000000000000000000000000000000000000000000000000000000000000000000000000000000000000000000000000000000000000000000000000000000000000000000000000000000000000000000000000000000000000000000000000000000000000000000000000000000000000000000000000000000000000000000000000000000000000000000000000000000000000000000000000000000000000000000000000000000000000000000000000000000000000000000000000000000000000000000000000000000000000000000000000000000000000000000000000000000000000000000000000000000000000000000000000000000000000000000000000000000000000000000000000000000000000000000000000000000000000000000000000000000000000000000000000000000000000000000000000000000000000000000000000000000000000000000000000000000000000000000000000000000000000000000000000000000000000000000000000000000000000000000000000000000000000000000000000000000000000000000000000000000000000000000000000000000000000000000000000000000000000000000000000000000000000000000000000000000000000000000000000000000000000000000000000000000000000000000000000000000000000000000000000000000000000000000000000000000000000000000000000000000000000000000000000000000000000000000000000000005400000000000000000000000000000000000000000000000000000000000000000000000000000000000000000000000000000000000000000000000000000000000000000000000000000000000000000000000000000000000000000000000000000000000000000000000000000000000000000000000000000000000000000000000000000000000000000000000000000000000000000000000000000000000000000000000000000000000000000000000000000000000000000000000000000000000000000000000000000000000000000000000000000000000000000000000000000000000000000000000000000000000000000000000000000000000000000000000000000000000000000000000000000000000000000000000000000000000000000000000000000000000000000000000000000000000000000000000000000000000000000000000000000000000000000000000000000000000000000000240000000000000000000000000000000000000000000000000000000000000000000000000000000000000000000000000000000000000000000000000000000000000000000000000000000000000000000000000000000000000000000000000000000000000000000000000000000000000000000000000000000000000000000000000000000000000000000000000000000000000000000000000000000000000000000000000000000000000000000000000000000000000000000000000000000000000000000000000000000000000000000000000000000000000000000000000000000000000000000000000000000000000000000000000000000000000000000000000000000000000000000000000000000000000000000000000000000000000000000000000000000000000000000000000000000000000000000000000000000000000000000000000000000000000000000000000000000000000000000000000000000000000000000000000000000000000000000000000000000000000000000000000000000000000000000000000000000000000000000000000000000000000000000000000000000000000000000000000000000000000000000000000000000000000000000000000000000000000000000000
#033321:0000000000000013
#034321:23
#0343b1:0000000000000013
#0353b1:23
#035381:0013
#0353b1:00000023
#037351:00001323
#0383b1:1333
#0383a1:00330000000000330033000000000000
#038391:0033003300330000
#038381:00000033003300000000003300000000
#038371:00330023
#039321:1333
#039331:00330000000000330033000000000000
#039341:0033003300330000
#039351:00000033003300000000003300000000
#039361:00330023
#0393b1:0000000000000013
#0403b1:23
#0403b1:0000000000000013
#0413b1:23
#0413b1:0013
#041371:00000023
#042321:1353
#042331:00330000000000330033000000000000
#042341:0033003300330000
#042361:00330023
#042351:00000000003300000000003300000000
#0433b1:1333
#0433a1:00330000000000330033000000000000
#043391:0033003300330000
#043381:00000033003300000000000000000000
#043371:00330023
#043321:0000000000000013
#044321:23
#046381:00000013
#0463b1:0000000000000023
#047351:00000013
#047321:0000000000000023
#048381:00000013
#0483b1:0000000000000023
#050351:00000013
#050321:0000000000000023
#051381:00000013
#0513b1:0000000000000023
#0533a1:1424
#053320:1424
#054320:0000000000000014
#055320:24
#055320:0013
#055360:00000023
#057360:0013
#057320:00000023
#0573a0:0000000000000014
#0583a0:24
#058320:0000000000000014
#059320:24
#059320:0013
#059360:00000023
#061370:00001323
#064380:0000000000000013
#065380:23
#065360:0013
#065320:00000023
#070320:00000013
#070350:0000000000000023
#0713b0:00000013
#071380:0000000000000023
#072320:00000013
#072350:0000000000000023
#0743b0:00000013
#074380:0000000000000023
#075320:00000013
#075350:0000000000000023
#077360:0000001200002200
#079330:0000001200002200
#0793b1:0000001200002200
#081351:0000001200002200
#081390:0000001200002200
#0833a0:0000001200002200
#083380:00000000000000000052000000000000
#0539a0:00000000000000000000000014545454
#053990:0000000000000000000000000000000000000000000000000054005400540054
#0549a0:24
#062920:1323
#062960:00530000
#062971:0013
#0629b1:00000023
#0639b1:1323
#063971:00530000
#063960:0013
#063920:00000023
#0669b0:13
#066990:0023000000000000
#066920:00130000
#066950:00000000000000230000000000000000
#0669b0:00000000000000000013000000000000
#066980:00000023
#067920:13
#067950:00000023000000000000000000000000
#0679b0:00130000
#067980:00000000000000230000000000000000
#067920:0013
#067960:00000023
