This file was generated by Ched 2.7.0.0.
#TITLE ""
#ARTIST ""
#DESIGNER ""
#DIFFICULTY 0
#PLAYLEVEL
#SONGID ""
#WAVE ""
#WAVEOFFSET 0
#JACKET ""
#REQUEST "ticks_per_beat 480"
#00002: 4
#BPM01: 142
#00008: 01
#TIL00: ""
#VOLUME: ""
#HISPEED 00
#MEASUREHS 00
#0041a:14
#00414:0014
#00612:14
#00618:0014
#0081a:1414
#00814:00140000
#00912:1414
#00918:00140000
#01018:1414
#01014:00140000
#01214:24141400
#01210:41
#01318:14141400
#01412:14141400
#01612:14141400
#0171a:14141400
#01814:14141400
#0191a:14
#01912:14
#01918:00000014
#0111a:14
#01112:14
#02018:00000014
#02010:41
#0211a:00000014
#02212:14140000
#02218:00001414
#02314:14140014
#0231a:0014
#02414:00000014
#02512:00000014
#0261a:14140000
#02614:00001414
#02718:0016
#0271a:24
#02912:00000014
#03014:0014
#03018:00000014
#0301a:24
#03010:41
#03112:14
#03118:0014
#03212:14
#03216:00140000
#03814:00001414
#03818:0000000000140000
#0381a:00140000
#03812:24
#03810:41
#0391a:14
#03912:00140000
#03918:00001414
#03914:0000000000140000
#04012:14
#04014:0014
#0401a:00000014
#04018:00140000
#04112:14
#04118:00140000
#04714:14
#0481a:14
#05118:14
#05212:14
#05412:0014
#05418:00000014
#0541f:21
#05514:14
#0551a:0014
#05510:41
#05614:14
#05618:00140000
#0581a:0014
#05814:00000014
#05918:14
#05912:0014
#06018:14
#06014:00140000
#0621a:00140000
#06214:00001414
#06218:0000000000140000
#06212:24
#0631a:14
#06312:00140000
#06318:00001414
#06314:0000000000140000
#06412:14
#06414:0014
#06418:00000014
#0641a:00140000
#06512:14
#0651a:00140000
#07014:0014
#07018:00000014
#07010:41
#07112:14
#07118:0014
#07114:00000014
#0721a:14
#07214:0014
#07218:00000014
#07312:14
#07314:0014
#07418:0014
#07414:00000014
#0751a:14
#07514:0014
#07518:00000014
#07612:14
#07618:0014
#07614:00000014
#0781a:14
#07814:0014
#08012:14
#08018:0014
#0821a:14
#08214:00140000
#08218:0014
#08312:14
#08318:00140000
#08314:0014
#08418:1414
#08414:00140000
#04218:00001414
#04214:0000000000140000
#04212:00140000
#0421a:24
#04312:14
#0431a:00140000
#04314:00001414
#04318:0000000000140000
#0441a:14
#04418:0014
#04414:00140014
#04518:14
#04514:00140000
#06612:00140000
#06618:00001414
#06614:0000000000140000
#0661a:24
#06712:14
#0671a:00140000
#06714:00001414
#06718:0000000000140000
#0681a:14
#06818:0014
#06814:00000014
#06812:00140000
#06918:14
#06914:00140000
#03414:0014
#03418:00000014
#03512:14
#03518:0014
#03612:14
#03616:00140000
#02814:0018
#02816:18
#0461f:11
#0611a:0024
#07712:24
#0771a:24
#0371a:0024
#0055a:0000001400000000
#00752:0000001400000000
#0155a:0014
#02052:0000001400000000
#02154:0000001400000000
#0245a:0000001400000000
#02558:0000001400000000
#02758:0066
#0275a:64
#0305a:14
#03152:14
#03457:14
#04052:14
#04152:14
#04658:14
#0485a:14
#05052:14
#04754:14
#05158:14
#05252:14
#0545a:14
#05554:14
#05852:14
#05958:14
#0615a:0014
#06452:14
#06552:14
#0705a:14
#07152:14
#0725a:14
#07354:0024
#07352:54
#07452:14
#0755a:14
#07652:14
#0795a:0000001400000000
#08152:0000001400000000
#0445a:14
#0685a:14
#03552:14
#0375a:0014
#02854:0028
#02856:68
#0053a0:1400002400000000
#007320:1400002400000000
#015380:14
#0153a0:0024
#020320:1400002400000000
#021340:1400002400000000
#0243a0:1400002400000000
#025380:1400002400000000
#0273a0:14
#027380:0036
#028360:38
#028340:0058
#029360:28
#0323a0:0014
#0333a0:34
#033390:0054340000000000
#033380:0000005434000000
#033370:0000000000540000
#034370:24
#0363a0:0014
#0373a0:34342400
#041340:00001424
#045380:00001434
#046380:24
#049320:14000034
#050320:24
#0533a0:14000034
#0543a0:24
#056340:0014
#056330:00000035
#057320:36353400
#058320:24
#060380:0014
#0613a0:34342400
#065340:00001424
#0693a0:00001434
#0703a0:24
#073320:14
#073340:0034
#074320:24
#0793a0:1400002400000000
#081320:1400002400000000
#085320:1400000000342400
#0853a1:1400000000342400
