This file was generated by Ched 2.7.0.0.
#TITLE ""
#ARTIST ""
#DESIGNER ""
#DIFFICULTY 0
#PLAYLEVEL
#SONGID ""
#WAVE ""
#WAVEOFFSET 0
#JACKET ""
#REQUEST "ticks_per_beat 480"
#00002: 4
#BPM01: 160
#00008: 01
#TIL00: "0'0:1"
#VOLUME: ""
#HISPEED 00
#MEASUREHS 00
#0171a:0014
#01710:0041
#0181a:0014
#01912:0014
#02012:0014
#0211a:0014
#02212:0014
#02318:0014
#02418:0014
#02514:0014
#02510:0041
#02614:0014
#01613:0014
#01619:0014
#03114:0014
#03218:0014
#03312:0014
#03310:0041
#0341a:0014
#03514:0014
#0351f:0011
#03618:0014
#04412:16
#04418:0026
#04410:0041
#04518:16
#04512:0016
#04618:16
#04612:0016
#04718:16
#05118:0016
#05212:16
#05218:0016
#05210:0041
#05612:0026
#01318:0024
#04312:0026
#0431f:0021
#05312:26
#05718:26
#05712:0026
#05918:0026000000000000
#06312:0026
#00910:0041
#0013a0:14
#0023a0:24
#003320:14
#004320:24
#005380:14
#006380:24
#009340:1434
#012320:0024
#013380:0014
#0153a0:0024
#0273a0:0014
#028380:0034
#0293a0:0034
#0303a0:0024
#037320:0014
#038320:3434
#039320:24
#0393a0:0014
#0403a0:3434
#0413a0:3434
#042380:0024
#047320:0016
#048320:26
#048380:0016
#049380:26
#049320:0016
#050320:3636
#051320:26
#0533a0:0014
#054380:0034
#0553a0:0024
#059380:0016000036000000
#060370:36
#060360:0036
#061370:36
#061380:0036
#062380:0026
#063320:0016
#065320:00260000
