This file was generated by Ched 2.7.0.0.
#TITLE ""
#ARTIST ""
#DESIGNER ""
#DIFFICULTY 0
#PLAYLEVEL
#SONGID ""
#WAVE ""
#WAVEOFFSET 0
#JACKET ""
#REQUEST "ticks_per_beat 480"
#00002: 4
#BPM01: 160
#00008: 01
#TIL00: "0'0:1"
#VOLUME: ""
#HISPEED 00
#MEASUREHS 00
#0351f:0011
#03518:13000000000000000000000000230000
#03512:1300000000000023
#0351b:0000000000230000
#03515:00000000000000000000002300000000
#0321b:1313000013000013
#03215:00130000000000000000000000130000
#03218:00000000001300000000230000000000
#03212:00000000130013001300002300000000
#03112:00000000000000001300000000130000
#03118:0000000000000013
#0311b:0000000013230000
#0311a:22
#03114:22
#03115:00000000000000000000002300000000
#01915:0000001300000000
#01918:00130000
#0191b:0013000013001300
#01912:0013
#01916:0000000000000013
#06316:000000000000000000000000000000000000000000000000000000000000000000000000000000000000000000000000000000000000000000000000000000000000000000000000000000000000000000000000000000000000000000000000000000000000000000000000000000000000000000000000000000000000000000000000000000000000000000000000000000000000000000000000000000000000000000000000000000000000000000000000000000000000000000000000000000000000000000000000000000000000000000000000000000000000000000000000000000000000000000000000000000000000000000000000000000000000000000000000000000000000000000000000000000000000000000000000000000000000000000000000000000000000000000000000000000000000000000000000000000000000000000000000000000000000000000000000000000000000000000000000000000000000000000000000000000000000000000000000000000000000000000000000000000000000000000000000000000000000000000000000000000000000000000000000000000000000000000000000000000000000000000000000000000000000000000000000000000000000000000000000000000000000000000000000000000000000000000000000000000000000000000000000000000000000000000000000000000000000000000000000000000000000000000000000000000000000000000000000000000000000000000000000000000000000000000000000000000000000000000000000000000000000000000000000000000000000000000000000000000000000000000000000000000000000000000000000000000000000000000000000000000000000000000000000000000000000000000000000000000000000000000000000000000000000000000000000000000000000000000000000000000000000000000000000000000000000000000000000000000000000000000000000000000000000000000000000000000000000000000000000000000000000000000000000000000000000000000000000000000000000000000000000000000000000000000000000000000000000000000000000000000000000000000000000000000000000000000000000000000000000000000000000000000000000000000000000000000000000000000000000000000000000000000000000000000000000000000000000000000000000000000000000000000000000000000000000000000000000000000000000000000000000000000000000000000000000000000000000000000000000000000000000000000000000000000000000000000000000000000000000000000000000000000000000000000000000000000000000000000000000000000000000000000000000000000000000000000000000000000000000000000000000000000000000000000000000000000000000000000000000000000000000000000000000000000000000000000000000000000000000000000000000000000000000000000000000000000000000000000000000000000000000000000000000000000000000000000000000000000000000000000000000000000000000000000000000000000000000000000000000000000000000000000000000000000000000000000000000000000000000000000000000000000000000000000000000000000000000000000000000000000000000000000000000000000000000000000000000000000000000000000000000000000000000000000000000000000000000000000000000000000000000000000000000000000000000000000000000000000000000000000000000000000000000000000000000000000000000000000000000000000000000000000000000000000000000000000000000000000000000141400000000000000000000000000000000000000000000000000000000000000000000000000000000000000000000000000000000000000000000000000000000000000000000000000000000000000000000000000000000000000000000000000000000000000000000000000000000000000000000000000000000000000000000000000000000000000000000000000000000000000000000000000000000000000000000000000000000000000000000000000000000000000000000000000000000000000000000000000000000000000000000000000000000000000000000000000000000000000000000000000000000000000000000000000000000000000000000000000000000000000000000000000000000000000000000000000000000000000000000000000000000000000000000000000000000000000000000000000000000000000000000000000000000000000000000000000000000000000000000000000000000000000000000000000000000000000000000000000000000000000000000000000000000000000000000000000000000000000000000000000000000000000000000000000000000000000000000000000000000000000000000000000000000000000000000000000000000000000000000
#06312:00000000000000001400003400003400
#0631a:00000000000000001400003400003400
#06216:141400000000000000000000000000000000000000000000000000000000000000000000000000000000000000000000000000000000000000000000000000000000000000000000000000000000000000000000000000000000000000000000000000000000000000000000000000000000000000000000000000000000000000000000000000000000000000000000000000000000000000000000000000000000000000000000000000000000000000000000000000000000000000000000000000000000000000000000000000000000000000000000000000000000000000000000000000000000000000000000000000000000000000000000000000000000000000000000000000000000000000000000000000000000000000000000000000000000000000000000000000000000000000000000000000000000000000000000000000000000000000000000000000000000000000000000000000000000000000000000000000000000000000000000000000000000000000000000000000000000000000000000000000000000000000000000000000000000000000000000000000000000000000000000000000000000000000000000000000000000000000000000000000000000000000000000000000000000000000000000000000000000000000000000000000000000000000000000000000000000000000000000000000000000000000000000000000000000000000000000000000000000000000000000000000000000000000000000000000000000000000000000000000000000000000000000000000000000000000000000000000000000000000000000000000000000000000000000000000000000000000000000000000000000000000000000000000000000000000000000000000000000000000000000000000000000000000000000000000000000000000000000000000000000000000000000000000000000000000000000000000000000000000000000000000000000000000000000000000000000000000000000000000000000000000000000000000000000000000000000000000000000000000000000000000000000000000000000000000000000000000000000000000000000000000000000000000000000000000000000000000000000000000000000000000000000000000000000000000000000000000000000000000000000000000000000000000000000000000000000000000000000000000000000000000000000000000000000000000000000000000000000000000000000000000000000000000000000000000000000000000000000000000000000000000000000000000000000000000000000000000000000000000000000000000000000000000000000000000000000000000000000000000000000000000000000000000000000000000000000000000000000000000000000000000000000000000000000000000000000000000000000000000000000000000000000000000000000000000000000000000000000000000000000000000000000000000000000000000000000000000000000000000000000000000000000000000000000000000000000000000000000000000000000000000000000000000000000000000000000000000000000000000000000000000000000000000000000000000000000000000000000000000000000000000000000000000000000000000000000000000000000000000000000000000000000000000000000000000000000000000000000000000000000000000000000000000000000000000000000000000000000000000000000000000000000000000000000000000000000000000000000000000000000000000000000000000000000000000000000000000000000000000000000000000000000000000000000000000000000000000000000000000000000000000000000000000000000000000000000140000000000000000000000000000000000000000000000000000000000000000000000000000000000000000000000000000000000000000000000000000000000000000000000000000000000000000000000000000000000000000000000000000000000000000000000000000000000000000000000000000000000000000000000000000000000000000000000000000000000000000000000000000000000000000000000000000000000000000000000000000000000000000000000000000000000000000000000000000000000000000000000000000000000000000000000000000000000000000000000000000000000000000000000000000000000000000000000000000000000000000000000000000000000000000000000000000000000000000000000000000000000000000000000000000000000000000000000000000000000000000000000000000000000000000000000000000000000000000000000000000000000000000000000000000000000000000000000000000000000000000000000000000000000000000000000000000000000000000000000000000000000000000000000000000000000000000000000000000000000000000000000000000000000000000000000000000000000000000000000
#0621a:00000000000000001400003400003400
#0641a:14
#06412:14
#05114:00000014
#05116:0014
#0511c:22
#0511a:00000022
#05212:1400132313000000
#0521b:0000231323000000
#05218:22
#05210:0041
#05816:0000001300000000
#05812:0013000000000023
#05817:0013000000000000
#0581b:0000001300000000
#05813:00000023
#05814:0000000000230000
#01714:1200000000000000001400140014001400000000000000000000000000000000
#01713:00000000000000000000000000000000001400140014001400140014001400140000000000000000000000000000000000000000000000000000000000000000
#01712:00000000141414140000000013001300
#0171b:0013
#0171a:12
#01717:0000000000000013
#01710:0041
#02718:00130000
#02715:0013000000000000
#02712:13
#0271b:00001313
#0261b:0000000013000013
#02618:0000000000130000
#02615:00000013
#02612:0000001300000000
#05716:2400000014000013
#05714:00140000
#05712:14
#0571b:0000000000000013
#0571a:0024
#05718:00240000
#05614:00000014
#05612:14
#0561a:0024
#05618:00000024
#05416:0000000014000014
#05412:0000000000000014
#0541a:0014
#05316:0000000014000014
#0531a:0000000000000014
#05318:26
#05312:0024
#04512:00001300000000000000002300002300
#04518:0013000000000000
#04515:13230000
#0451b:13232300
#04517:0000000000000023
#04516:0023
#0441b:0013000000000000
#04415:0013000026000023
#04418:13000000230000000000002300000000
#04412:13232300
#04410:0041
#05514:00000000000000000000001400000000
#05516:0014
#05512:0000000000000014
#04616:0000001324002400
#04612:23000014
#0461a:0014
#0461b:00000023000023000000000000000000
#04617:23
#0231b:0013000013001313
#02312:1313
#02316:0000000000000013
#02315:0000001300000000
#02318:00130000
#02518:0000001300130013
#0251b:0013
#02515:00130013
#02512:0013000013000000
#02510:0041
#06112:0014
#0611a:0014
#04916:00000014000000000000000000000000
#0491a:24
#04816:24000000000000000000001400000000
#04812:0000001414000000
#0481a:0000000000000024
#04818:00000034000000000000000000000000
#0471a:1414
#04712:00140000
#04716:24240000
#04714:00000000000000000000003400000000
#04212:00130013
#04215:1300001300000000
#0421b:00130023
#04218:1300001300000000
#03818:0000002313000000
#03815:2323000000000013
#03812:0000000013130000
#0381b:2323000000000000
#03715:0013
#03718:2300000000000013
#0371b:0000230013130000
#03415:00000000000000130000000000000000
#03418:0000001300000000
#03412:00130000
#03312:00130000000000000000130000000000
#03318:13001300000000000000001300000000
#03315:0000131300000000
#0331b:00000000001300000000000000000013
#03310:0041
#03015:00000013000000000000000000000000
#03018:00000000001300001300000000002200
#0301b:0013000000000000
#03016:00000000000000000000002200000000
#02912:00130013
#02918:00000013
#02417:0000001313000000
#02416:0013000000001313
#02412:0013
#0241b:0013000000000013
#02215:0013000000001300
#0221b:00000000000013000000001300000000
#02218:0000130000000013
#02212:13
#0211b:0013000013000000
#02115:13
#02116:0013
#02112:00130000
#02018:00000013
#02012:0013
#02017:0000001300000000
#01816:0000001313000000
#01817:0013000000001313
#0181b:0013
#01812:0013000000000013
#01512:00130000
#01515:13
#01518:0016
#0141b:1313
#01412:2313
#01418:00130000
#01315:0000003313000000
#01318:0000003313000000
#0131b:23
#01314:00000033000000000000000000000000
#01319:00000033000000000000000000000000
#01117:13
#01112:13
#00916:0013
#0091b:0013
#00918:12
#00912:12
#00910:0041
#00316:0012
#0031c:0012
#00318:12
#00312:12
#0021c:00120000
#01614:0012
#01616:00000000000000000000001200001200
#0161a:00000012
#01618:00000000000000000012000000000000
#02815:13130000
#02818:00000013
#00118:0012
#0011c:22
#04314:00130000
#0431a:13
#0431f:0021
#04318:0000000000000023
#04315:00000000000000002600002300000000
#0431b:0023
#04319:00230000
#04313:23
#0591a:0024000000000000
#03912:2323000023000000
#03918:23002300000000000000003300000000
#03915:00000000000023000000003300000000
#0391a:00000000000000000033000000000000
#03919:0000000000330000
#03913:00000000000000000033000000000000
#03914:0000000000330000
#04012:00000033000000002300000000000033
#04018:23000000000000000000003300000000
#0401a:00003300000000000033000000003300
#04019:00330000000000000000330000330000
#0401b:00000033000000000000000000000033
#04013:00003300000000000033000000003300
#04014:00330000000000000000330000330000
#04015:00000000000000000000003300000000
#03615:00000023
#03612:0023
#0001a:00000022
#0051c:0000000000000022
#06512:00260000
#06518:00000023000000000000000000000000
#06515:0023000000000000
#0411a:00330000000033000000000000000000
#04119:00003300003300000000000000000000
#04118:00000033000000000000000000000000
#0411b:00000000000000330000000000000000
#04112:00000000000000330000000000000000
#04113:00330000000033000000000000000000
#04114:00003300003300000000000000000000
#04115:00000033000000000000000000000000
#05352:00000016000000005400000000000000
#05358:00000016000000000000000000000000
#05356:0000000054000024
#0535a:0000000000000024
#0515c:0012
#0515a:00000012
#0495a:6414
#04952:14
#04956:00000024000000000000000000000000
#0485a:0014
#04852:1454
#04856:00000000000000000000002400000000
#03958:0000000000000013
#03955:0000000000000013
#0425b:00634300
#04252:00533300
#04255:6300002300000000
#04258:5300002300000000
#0405b:0000001300000000
#04052:0000001300000000
#02955:0013
#0295b:0013
#02952:13530000
#02858:00001353
#02855:13630000
#01752:00000000242424241400000000000000
#01753:00000000000000000000000000000000005400540054005400540054005400540000000000000000000000000000000000000000000000000000000000000000
#01754:0000000000000000002400240024002400000000000000000000000000000000
#0175b:0063
#01558:1356
#01555:6313
#01552:00230000
#05258:12
#05252:0053
#04555:63130000
#0455b:63136300
#04552:0023000000000000
#04558:0023000000000000
#04652:53
#04458:53000000130000000000005300000000
#04452:53135300
#04455:0023000016000000
#0445b:0023000000000000
#01452:1353
#0145b:6363
#01458:00230000
#04355:00000000000000001600006300000000
#0435b:0063
#06552:00360000
#0015c:62
#00158:0052
#06356:000000000000000000000000000000000000000000000000000000000000000000000000000000000000000000000000000000000000000000000000000000000000000000000000000000000000000000000000000000000000000000000000000000000000000000000000000000000000000000000000000000000000000000000000000000000000000000000000000000000000000000000000000000000000000000000000000000000000000000000000000000000000000000000000000000000000000000000000000000000000000000000000000000000000000000000000000000000000000000000000000000000000000000000000000000000000000000000000000000000000000000000000000000000000000000000000000000000000000000000000000000000000000000000000000000000000000000000000000000000000000000000000000000000000000000000000000000000000000000000000000000000000000000000000000000000000000000000000000000000000000000000000000000000000000000000000000000000000000000000000000000000000000000000000000000000000000000000000000000000000000000000000000000000000000000000000000000000000000000000000000000000000000000000000000000000000000000000000000000000000000000000000000000000000000000000000000000000000000000000000000000000000000000000000000000000000000000000000000000000000000000000000000000000000000000000000000000000000000000000000000000000000000000000000000000000000000000000000000000000000000000000000000000000000000000000000000000000000000000000000000000000000000000000000000000000000000000000000000000000000000000000000000000000000000000000000000000000000000000000000000000000000000000000000000000000000000000000000000000000000000000000000000000000000000000000000000000000000000000000000000000000000000000000000000000000000000000000000000000000000000000000000000000000000000000000000000000000000000000000000000000000000000000000000000000000000000000000000000000000000000000000000000000000000000000000000000000000000000000000000000000000000000000000000000000000000000000000000000000000000000000000000000000000000000000000000000000000000000000000000000000000000000000000000000000000000000000000000000000000000000000000000000000000000000000000000000000000000000000000000000000000000000000000000000000000000000000000000000000000000000000000000000000000000000000000000000000000000000000000000000000000000000000000000000000000000000000000000000000000000000000000000000000000000000000000000000000000000000000000000000000000000000000000000000000000000000000000000000000000000000000000000000000000000000000000000000000000000000000000000000000000000000000000000000000000000000000000000000000000000000000000000000000000000000000000000000000000000000000000000000000000000000000000000000000000000000000000000000000000000000000000000000000000000000000000000000000000000000000000000000000000000000000000000000000000000000000000000000000000000000000000000000000000000000000000000000000000000000000000000000000000000000000000000000000000000000000000000000000000000000000000000000000000000000000000000000000000000000000000000242400000000000000000000000000000000000000000000000000000000000000000000000000000000000000000000000000000000000000000000000000000000000000000000000000000000000000000000000000000000000000000000000000000000000000000000000000000000000000000000000000000000000000000000000000000000000000000000000000000000000000000000000000000000000000000000000000000000000000000000000000000000000000000000000000000000000000000000000000000000000000000000000000000000000000000000000000000000000000000000000000000000000000000000000000000000000000000000000000000000000000000000000000000000000000000000000000000000000000000000000000000000000000000000000000000000000000000000000000000000000000000000000000000000000000000000000000000000000000000000000000000000000000000000000000000000000000000000000000000000000000000000000000000000000000000000000000000000000000000000000000000000000000000000000000000000000000000000000000000000000000000000000000000000000000000000000000000000000000000000
#06352:0054
#0635a:0064
#06256:242400000000000000000000000000000000000000000000000000000000000000000000000000000000000000000000000000000000000000000000000000000000000000000000000000000000000000000000000000000000000000000000000000000000000000000000000000000000000000000000000000000000000000000000000000000000000000000000000000000000000000000000000000000000000000000000000000000000000000000000000000000000000000000000000000000000000000000000000000000000000000000000000000000000000000000000000000000000000000000000000000000000000000000000000000000000000000000000000000000000000000000000000000000000000000000000000000000000000000000000000000000000000000000000000000000000000000000000000000000000000000000000000000000000000000000000000000000000000000000000000000000000000000000000000000000000000000000000000000000000000000000000000000000000000000000000000000000000000000000000000000000000000000000000000000000000000000000000000000000000000000000000000000000000000000000000000000000000000000000000000000000000000000000000000000000000000000000000000000000000000000000000000000000000000000000000000000000000000000000000000000000000000000000000000000000000000000000000000000000000000000000000000000000000000000000000000000000000000000000000000000000000000000000000000000000000000000000000000000000000000000000000000000000000000000000000000000000000000000000000000000000000000000000000000000000000000000000000000000000000000000000000000000000000000000000000000000000000000000000000000000000000000000000000000000000000000000000000000000000000000000000000000000000000000000000000000000000000000000000000000000000000000000000000000000000000000000000000000000000000000000000000000000000000000000000000000000000000000000000000000000000000000000000000000000000000000000000000000000000000000000000000000000000000000000000000000000000000000000000000000000000000000000000000000000000000000000000000000000000000000000000000000000000000000000000000000000000000000000000000000000000000000000000000000000000000000000000000000000000000000000000000000000000000000000000000000000000000000000000000000000000000000000000000000000000000000000000000000000000000000000000000000000000000000000000000000000000000000000000000000000000000000000000000000000000000000000000000000000000000000000000000000000000000000000000000000000000000000000000000000000000000000000000000000000000000000000000000000000000000000000000000000000000000000000000000000000000000000000000000000000000000000000000000000000000000000000000000000000000000000000000000000000000000000000000000000000000000000000000000000000000000000000000000000000000000000000000000000000000000000000000000000000000000000000000000000000000000000000000000000000000000000000000000000000000000000000000000000000000000000000000000000000000000000000000000000000000000000000000000000000000000000000000000000000000000000000000000000000000000000000000000000000000000000000000000000000000000000000000000240000000000000000000000000000000000000000000000000000000000000000000000000000000000000000000000000000000000000000000000000000000000000000000000000000000000000000000000000000000000000000000000000000000000000000000000000000000000000000000000000000000000000000000000000000000000000000000000000000000000000000000000000000000000000000000000000000000000000000000000000000000000000000000000000000000000000000000000000000000000000000000000000000000000000000000000000000000000000000000000000000000000000000000000000000000000000000000000000000000000000000000000000000000000000000000000000000000000000000000000000000000000000000000000000000000000000000000000000000000000000000000000000000000000000000000000000000000000000000000000000000000000000000000000000000000000000000000000000000000000000000000000000000000000000000000000000000000000000000000000000000000000000000000000000000000000000000000000000000000000000000000000000000000000000000000000000000000000000000000000
#0625a:0064
#0645a:64
#06452:54
#05857:0053000000000000
#0585b:0000006300000000
#05456:0000000064000024
#05452:0000000000000024
#0545a:0064
#05652:54
#06152:0054
#0615a:0064
#03455:00000000000000630000000000000000
#03558:53
#03552:53
#0275b:00001363
#02457:0053
#02456:0063000000000000
#02352:1353
#0215b:0063
#02156:0063
#02152:00530000
#02058:00000053
#02052:0053
#01952:0053
#01856:0063
#01857:0053000000000000
#01355:0063
#01358:0053
#01157:23
#01152:23
#00956:0063
#0095b:0063
#00958:52
#00952:52
#00356:0062
#0035c:0062
#00358:52
#00352:52
#0025c:00620000
#0575b:0000000000000063
#0013c0:1200000000000032
#001380:0000003232000000
#0023c0:3232320000000000
#002380:00000032
#003380:32
#0033c0:0032
#004380:22
#002321:00000012
#003321:32
#003361:0032
#004321:22
#004361:0012
#005361:32
#005341:00000032000000000000000000000000
#005321:00000000000032323200000000000000
#008321:0000000000000032
#009321:32
#009361:0000003333000000
#011321:53
#012351:0023
#0053c0:0000000000000012
#0063c0:32
#0063a0:00000032000000000000000000000000
#006380:0000000000000000000000000000000000000000000000000000000000000000000000000000000000000000000000003200000000000000320000000000000032000000000000000000000000000000000000000000000000000000000000000000000000000000000000000000000000000000005200000000005400520000
#006360:0000000000000000000000000000000000000000000000000000000000000000000000000000000000000000000000000000000000000000000000000000000000000000000000000000000000000000000000000000000000000000000000000000000000000000000000000000000000000000000055000055000000000000
#006370:0000000000000000000000000000000000000000000000000000000000000000000000000000000000000000000000000000000000000000000000000000000000000000000000000000000000000000000000000000000000000000000000000000000000000000000000000000000000000000000000530000560056000000
#006350:00000000000000000000000000000057
#007380:0000000052005200520052000000000000005300520000000000000052000000520052000000520000535200520000000000520000520052000000005200000052000052000000005200000052005400520000520000005200000052530052000000520000000000520000520000005200000052000052005200000000000000
#007360:0000000000560000000000000056000056000000000000000000000000000000000000000000005600000000000056005500000000000000000000000000570000000000000000000000000000000055000000000000570000000000000000000000005600000000000000000055000000000000560000000058000000005654
#007370:0000000000000054000000000000000000540055000000000000000000005354005400000054000053000000000000550054000054005500000000000000000000000000000000000000000000540000000000005500000000000000005400000000000000540053000000000000550000540000000000550000550000000000
#007350:0000000000000000000000005800005600000000000000000000000000580000000000000000000000000000000000000000000000000000000000000059005700000000005700000000000000000000000000000056000000000000000000000000000000000000000000005700000000000000000000000000005700560000
#007340:000000000000005a0000000000000000000000000000000000000000000000000000575700000000000000000000000000000000000000000000000000005900
#008350:5655000000000000000000000000000000000000000000000000000000000000000000000000000000000000000000000000005856000000000000000000000000000000000000000000000000000000000000000000000000000000000000000000000000000000000000000000000000000000000000000000000000000000
#008340:00580000000000000000000000000000000000000000000000000000000000000000000000000000000000000000000000000000000000000000000000000000
#008380:0000005200000000000000000000000000520000005200520000000000000000000052000000005253520000000000000000520000000052005200000000000000000000000000000000000000000000000000000000000000000000000000000000000000000000000000000000000032000000000000000000000000000000
#008370:00000000000000000000545400000000000054540000000000000000540000000000000000000000000000000000000000000000000000000000000000000000
#008360:0000000000000000000000000000000000000000000000000000000000000000000000560054000000000000000000000000000000555500000000000000000000000000000000000000000000000000000000000000000000000000000000000000000000000000000000000000000000000000000000000000000000000000
#009380:32
#0093b0:0000003333000000
#011370:53
#0123b0:0023
#013320:13
#013340:00000033000000000000000000000000
#013350:0000003333000000
#014320:23
#0133b1:13
#013391:00000033000000000000000000000000
#013381:0000003333000000
#0143b1:5333
#014381:00530000
#015381:23
#014320:0013
#015350:5323
#015320:00530000
#015381:0016
#016381:0022
#017321:00000000145454542400000000000000
#017331:00000000000000000000000000000000005400540054005400540054005400540000000000000000000000000000000000000000000000000000000000000000
#017341:0000000000000000005400540054005400000000000000000000000000000000
#0173b0:0013
#017370:00000023
#018370:0013000000000000
#0183b0:0000002300000000
#018360:0013
#018320:00000023
#019320:0013
#019360:00000023
#0193b0:0000000000000013
#0203b0:0023000000000000
#020321:0013002300000000
#020321:0013
#020351:00000023
#020380:00000013
#0213b0:23
#021320:00130023
#021360:0033
#0213b1:0013
#021371:00000023
#022351:00000000000000001300002300000000
#023321:0013
#023361:00000023
#024361:0013000000000000
#024321:0000002300000000
#024371:0013
#0243b1:00000023
#025321:0000000000000013
#026321:0023000000000000
#0263b0:0013002300000000
#0273b0:00000013
#028380:5323
#028351:00130000
#028321:0053
#029321:23
#028380:00000013
#0293b0:5323
#029321:00130000
#029351:0023
#030351:1323000000000000
#030321:0000001323000000
#033381:0000000013230000
#033321:00000013
#033351:00000000000000000000000000000023
#034351:1323000000000000
#034380:0013230000000000
#034350:00000000000000130000000000000000
#035320:53
#035350:0023
#035381:13
#0353b1:0023
#036361:14240000
#037351:0000000000130000
#037321:0000000000000023
#038351:0013000000000000
#038321:0000002300000000
#038381:0000000000130000
#0383b1:0000000000000023
#039381:0013000000000000
#0393b1:0000002300000000
#0393b1:0013
#0393a1:00000000000000000033000000000000
#039391:0000000000330000
#039381:00000000000000000000003333002300
#039320:0013
#039330:00000000000000000033000000000000
#039340:0000000000330000
#039350:00000000000000000000003333002300
#040380:13
#040390:00330000000000000000000000000000
#0403a0:0033000000000000
#0403b0:00000033330023000000000000000000
#040351:13
#040341:00330000000000000000000000000000
#040331:0033000000000000
#040321:00000033330023000000000000000000
#0403b1:00000000000000001300000000000033
#0403a1:00000000000000000033000000003300
#040391:00000000000000000000330000330000
#040381:00000000000000000000003333000000
#0413b1:33000000000000333300000000000000
#0413a1:00330000000033000000000000000000
#041391:00003300003300000000000000000000
#041381:00000033330000000000000000000000
#042381:5300005300000000
#0423b1:00532300
#040320:00000000000000001300000000000033
#040330:00000000000000000033000000003300
#040340:00000000000000000000330000330000
#040350:00000000000000000000003333000000
#041320:33000000000000333300000000000000
#041330:00330000000033000000000000000000
#041340:00003300003300000000000000000000
#041350:00000033330000000000000000000000
#042350:5300005300000000
#042320:00532300
#0433b0:0013
#043380:00000000000000000000002300000000
#043351:00000000000000000000001300000000
#043321:0000000000000023
#044381:13230000
#0443b1:0053000000000000
#044320:13230000
#044350:0053000000000000
#044320:0013
#044350:00000000000000000000002300000000
#044381:00000000000000000000001300000000
#0443b1:0000000000000023
#045351:13230000
#045321:0053000000000000
#0453b0:13230000
#045380:0053000000000000
#0453b0:0013
#045370:00000000000000000000002300000000
#046320:13
#046360:00000023000000000000000000000000
#047360:0014
#047340:00000000000000000000003400000000
#047320:0000000000000034
#048320:24
#048361:14
#048381:00000034000000000000000000000000
#0483a1:0000003424000000
#048320:0000000014000034
#048360:00000000000000000000003400000000
#049320:24
#0493a1:1400003424000000
#049361:00000034000000000000000000000000
#049320:0000000015000035
#049350:00000000000000000000003500000000
#050320:25
#0503a1:1400003424000000
#050361:00000034000000000000000000000000
#050320:0000000013000033
#050360:00000000000000000000003300000000
#051320:23
#0513c1:1200003222000000
#051381:00000032000000000000000000000000
#052321:0013
#053321:36000026000000000000000000000000
#053380:16000026000000000000000000000000
#053320:0014
#053360:0000000000000054
#054320:0000340000000054
#054360:0034
#055360:00240000
#053361:0014
#0533a1:0000000000000054
#054361:00240000
#0543a1:0014
#054361:0000000000000054
#0553a1:00340000
#0563a1:24
#056320:14
#056360:0024
#0573b0:0000000000000013
#058370:0033000000000023
#0583b0:0000003300000000
#0593a0:0014000034000000
#060360:34
#0603a0:0034
#061360:34
#0613a0:0034
#062360:005400000000000000000000000000000000000000000000000000000000000000000000000000000000000000000000000000000000000000000000000000000000000000000000000000000000000000000000000000000000000000000000000000000000000000000000000000000000000000000000000000000000000000000000000000000000000000000000000000000000000000000000000000000000000000000000000000000000000000000000000000000000000000000000000000000000000000000000000000000000000000000000000000000000000000000000000000000000000000000000000000000000000000000000000000000000000000000000000000000000000000000000000000000000000000000000000000000000000000000000000000000000000000000000000000000000000000000000000000000000000000000000000000000000000000000000000000000000000000000000000000000000000000000000000000000000000000000000000000000000000000000000000000000000000000000000000000000000000000000000000000000000000000000000000000000000000000000000000000000000000000000000000000000000000000000000000000000000000000000000000000000000000000000000000000000000000000000000000000000000000000000000000000000000000000000000000000000000000000000000000000000000000000000000000000000000000000000000000000000000000000000000000000000000000000000000000000000000000000000000000000000000000000000000000000000000000000000000000000000000000000000000000000000000000000000000000000000000000000000000000000000000000000000000000000000000000000000000000000000000000000000000000000000000000000000000000000000000000000000000000000000000000000000000000000000000000000000000000000000000000000000000000000000000000000000000000000000000000000000000000000000000000000000000000000000000000000000000000000000000000000000000000000000000000000000000000000000000000000000000000000000000000000000000000000000000000000000000000000000000000000000000000000000000000000000000000000000000000000000000000000000000000000000000000000000000000000000000000000000000000000000000000000000000000000000000000000000000000000000000000000000000000000000000000000000000000000000000000000000000000000000000000000000000000000000000000000000000000000000000000000000000000000000000000000000000000000000000000000000000000000000000000000000000000000000000000000000000000000000000000000000000000000000000000000000000000000000000000000000000000000000000000000000000000000000000000000000000000000000000000000000000000000000000000000000000000000000000000000000000000000000000000000000000000000000000000000000000000000000000000000000000000000000000000000000000000000000000000000000000000000000000000000000000000000000000000000000000000000000000000000000000000000000000000000000000000000000000000000000000000000000000000000000000000000000000000000000000000000000000000000000000000000000000000000000000000000000000000000000000000000000000000000000000000000000000000000000000000000000000000000000000000000000000000000000000000000000000000000000000000000000000000000000000000000000000000000000000000000000000540000000000000000000000000000000000000000000000000000000000000000000000000000000000000000000000000000000000000000000000000000000000000000000000000000000000000000000000000000000000000000000000000000000000000000000000000000000000000000000000000000000000000000000000000000000000000000000000000000000000000000000000000000000000000000000000000000000000000000000000000000000000000000000000000000000000000000000000000000000000000000000000000000000000000000000000000000000000000000000000000000000000000000000000000000000000000000000000000000000000000000000000000000000000000000000000000000000000000000000000000000000000000000000000000000000000000000000000000000000000000000000000000000000000000000000000000000000000000000000000000000000000000000000000000000000000000000000000000000000000000000000000000000000000000000000000000000000000000000000000000000000000000000000000000000000000000000000000000000000000000000000000000000000000000000000000000000000000000000000000
#0623a0:00000000000000003400003400003400
#0633a0:34000000000000003400003400003400
#063360:00000054
#0643a0:34
#065380:26
#059321:0014000034000000
#060361:005400000000000000000000000000000000000000000000000000000000000000000000000000000000000000000000000000000000000000000000000000000000000000000000000000000000000000000000000000000000000000000000000000000000000000000000000000000000000000000000000000000000000000000000000000000000000000000000000000000000000000000000000000000000000000000000000000000000000000000000000000000000000000000000000000000000000000000000000000000000000000000000000000000000000000000000000000000000000000000000000000000000000000000000000000000000000000000000000000000000000000000000000000000000000000000000000000000000000000000000000000000000000000000000000000000000000000000000000000000000000000000000000000000000000000000000000000000000000000000000000000000000000000000000000000000000000000000000000000000000000000000000000000000000000000000000000000000000000000000000000000000000000000000000000000000000000000000000000000000000000000000000000000000000000000000000000000000000000000000000000000000000000000000000000000000000000000000000000000000000000000000000000000000000000000000000000000000000000000000000000000000000000000000000000000000000000000000000000000000000000000000000000000000000000000000000000000000000000000000000000000000000000000000000000000000000000000000000000000000000000000000000000000000000000000000000000000000000000000000000000000000000000000000000000000000000000000000000000000000000000000000000000000000000000000000000000000000000000000000000000000000000000000000000000000000000000000000000000000000000000000000000000000000000000000000000000000000000000000000000000000000000000000000000000000000000000000000000000000000000000000000000000000000000000000000000000000000000000000000000000000000000000000000000000000000000000000000000000000000000000000000000000000000000000000000000000000000000000000000000000000000000000000000000000000000000000000000000000000000000000000000000000000000000000000000000000000000000000000000000000000000000000000000000000000000000000000000000000000000000000000000000000000000000000000000000000000000000000000000000000000000000000000000000000000000000000000000000000000000000000000000000000000000000000000000000000000000000000000000000000000000000000000000000000000000000000000000000000000000000000000000000000000000000000000000000000000000000000000000000000000000000000000000000000000000000000000000000000000000000000000000000000000000000000000000000000000000000000000000000000000000000000000000000000000000000000000000000000000000000000000000000000000000000000000000000000000000000000000000000000000000000000000000000000000000000000000000000000000000000000000000000000000000000000000000000000000000000000000000000000000000000000000000000000000000000000000000000000000000000000000000000000000000000000000000000000000000000000000000000000000000000000000000000000000000000000000000000000000000000000000000000000000000000000000000000000000000000000000000000000000000000000000000000000000000000000000000000000000000000000000000000000000000000000000000000000000000000000000000000000000000000000000000000000000000000000000000000000000000000000000000000000000000000000000000000000000000000000000000000000000000000000000000000000000000000000000000000000000000000000000000000000000000000000000000000000000000000000000000000000000000000000000000000000000000000000000000000000000000000000000000000000000000000000000000000000000000000000000000000000000000000000000000000000000000000000000000000000000000000000000000000000000000000000000000000000000000000000000000000000000000000000000000000000000000000000000000000000000000000000000000000000000000000000000000000000000000000000000000000000000000000000000000000000000000000000000000000000000000000000000000000000000000000000000000000000000000000000000000000000000000000000000000000000000000000000000000000000000000000000000000000000000000000000000000000000000000000000000000000
#060321:0034
#061361:005400000000000000000000000000000000000000000000000000000000000000000000000000000000000000000000000000000000000000000000000000000000000000000000000000000000000000000000000000000000000000000000000000000000000000000000000000000000000000000000000000000000000000000000000000000000000000000000000000000000000000000000000000000000000000000000000000000000000000000000000000000000000000000000000000000000000000000000000000000000000000000000000000000000000000000000000000000000000000000000000000000000000000000000000000000000000000000000000000000000000000000000000000000000000000000000000000000000000000000000000000000000000000000000000000000000000000000000000000000000000000000000000000000000000000000000000000000000000000000000000000000000000000000000000000000000000000000000000000000000000000000000000000000000000000000000000000000000000000000000000000000000000000000000000000000000000000000000000000000000000000000000000000000000000000000000000000000000000000000000000000000000000000000000000000000000000000000000000000000000000000000000000000000000000000000000000000000000000000000000000000000000000000000000000000000000000000000000000000000000000000000000000000000000000000000000000000000000000000000000000000000000000000000000000000000000000000000000000000000000000000000000000000000000000000000000000000000000000000000000000000000000000000000000000000000000000000000000000000000000000000000000000000000000000000000000000000000000000000000000000000000000000000000000000000000000000000000000000000000000000000000000000000000000000000000000000000000000000000000000000000000000000000000000000000000000000000000000000000000000000000000000000000000000000000000000000000000000000000000000000000000000000000000000000000000000000000000000000000000000000000000000000000000000000000000000000000000000000000000000000000000000000000000000000000000000000000000000000000000000000000000000000000000000000000000000000000000000000000000000000000000000000000000000000000000000000000000000000000000000000000000000000000000000000000000000000000000000000000000000000000000000000000000000000000000000000000000000000000000000000000000000000000000000000000000000000000000000000000000000000000000000000000000000000000000000000000000000000000000000000000000000000000000000000000000000000000000000000000000000000000000000000000000000000000000000000000000000000000000000000000000000000000000000000000000000000000000000000000000000000000000000000000000000000000000000000000000000000000000000000000000000000000000000000000000000000000000000000000000000000000000000000000000000000000000000000000000000000000000000000000000000000000000000000000000000000000000000000000000000000000000000000000000000000000000000000000000000000000000000000000000000000000000000000000000000000000000000000000000000000000000000000000000000000000000000000000000000000000000000000000000000000000000000000000000000000000000000000000000000000000000000000000000000000000000000000000000000000000000000000000000000000000000000000000000000000000000000000000000000000000000000000000000000000000000000000000000000000000000000000000000000000000000000000000000000000000000000000000000000000000000000000000000000000000000000000000000000000000000000000000000000000000000000000000000000000000000000000000000000000000000000000000000000000000000000000000000000000000000000000000000000000000000000000000000000000000000000000000000000000000000000000000000000000000000000000000000000000000000000000000000000000000000000000000000000000000000000000000000000000000000000000000000000000000000000000000000000000000000000000000000000000000000000000000000000000000000000000000000000000000000000000000000000000000000000000000000000000000000000000000000000000000000000000000000000000000000000000000000000000000000000000000000000000000000000000000000000000000000000000000000000000000000000000000000000000000000000000000000000
#061321:0034
#062361:54
#062321:0054
#063321:00000000000000003400003400003400
#063361:000000000000000000000000000000000000000000000000000000000000000000000000000000000000000000000000000000000000000000000000000000000000000000000000000000000000000000000000000000000000000000000000000000000000000000000000000000000000000000000000000000000000000000000000000000000000000000000000000000000000000000000000000000000000000000000000000000000000000000000000000000000000000000000000000000000000000000000000000000000000000000000000000000000000000000000000000000000000000000000000000000000000000000000000000000000000000000000000000000000000000000000000000000000000000000000000000000000000000000000000000000000000000000000000000000000000000000000000000000000000000000000000000000000000000000000000000000000000000000000000000000000000000000000000000000000000000000000000000000000000000000000000000000000000000000000000000000000000000000000000000000000000000000000000000000000000000000000000000000000000000000000000000000000000000000000000000000000000000000000000000000000000000000000000000000000000000000000000000000000000000000000000000000000000000000000000000000000000000000000000000000000000000000000000000000000000000000000000000000000000000000000000000000000000000000000000000000000000000000000000000000000000000000000000000000000000000000000000000000000000000000000000000000000000000000000000000000000000000000000000000000000000000000000000000000000000000000000000000000000000000000000000000000000000000000000000000000000000000000000000000000000000000000000000000000000000000000000000000000000000000000000000000000000000000000000000000000000000000000000000000000000000000000000000000000000000000000000000000000000000000000000000000000000000000000000000000000000000000000000000000000000000000000000000000000000000000000000000000000000000000000000000000000000000000000000000000000000000000000000000000000000000000000000000000000000000000000000000000000000000000000000000000000000000000000000000000000000000000000000000000000000000000000000000000000000000000000000000000000000000000000000000000000000000000000000000000000000000000000000000000000000000000000000000000000000000000000000000000000000000000000000000000000000000000000000000000000000000000000000000000000000000000000000000000000000000000000000000000000000000000000000000000000000000000000000000000000000000000000000000000000000000000000000000000000000000000000000000000000000000000000000000000000000000000000000000000000000000000000000000000000000000000000000000000000000000000000000000000000000000000000000000000000000000000000000000000000000000000000000000000000000000000000000000000000000000000000000000000000000000000000000000000000000000000000000000000000000000000000000000000000000000000000000000000000000000000000000000000000000000000000000000000000000000000000000000000000000000000000000000000000000000000000000000000000000000000000000000000000000000000000000000000000000000000000000000000000000000000000000000005400000000000000000000000000000000000000000000000000000000000000000000000000000000000000000000000000000000000000000000000000000000000000000000000000000000000000000000000000000000000000000000000000000000000000000000000000000000000000000000000000000000000000000000000000000000000000000000000000000000000000000000000000000000000000000000000000000000000000000000000000000000000000000000000000000000000000000000000000000000000000000000000000000000000000000000000000000000000000000000000000000000000000000000000000000000000000000000000000000000000000000000000000000000000000000000000000000000000000000000000000000000000000000000000000000000000000000000000000000000000000000000000000000000000000000000000000000000000000000000000000000000000000000000000000000000000000000000000000000000000000000000000000000000000000000000000000000000000000000000000000000000000000000000000000000000000000000000000000000000000000000000000000000000000000000000000000000000000000000000
#064321:34
#065321:26
