This file was generated by Ched 2.7.0.0.
#TITLE ""
#ARTIST ""
#DESIGNER ""
#DIFFICULTY 0
#PLAYLEVEL
#SONGID ""
#WAVE ""
#WAVEOFFSET 0
#JACKET ""
#REQUEST "ticks_per_beat 480"
#00002: 4
#BPM01: 160
#00008: 01
#TIL00: "0'0:1"
#VOLUME: ""
#HISPEED 00
#MEASUREHS 00
#05118:00002616
#05112:00001626
#0511a:34000034000000000000000000000000
#01715:0000000000000013
#0171b:1313
#01712:13
#01710:0041
#0571b:0000000000000013
#05714:14
#05713:00140000
#05712:0014
#05718:24
#05717:00240000
#05716:0024
#01812:0013000000000000
#0181b:0000001300000000
#01818:0013000000000013
#01815:0013
#02218:0013000000000013
#02212:13
#0221b:0000001300000000
#02215:00131300
#02315:13130000
#0231b:0013000000000000
#02318:0000001300000013
#02312:0013
#02015:0000001300000000
#02018:0013000013000000
#0201b:00000013
#02112:0013000000000000
#02118:00130000
#01912:0013000000000000
#01915:0000001300000013
#01918:00130000
#0191b:0013
#04412:1323
#04418:1323
#04415:0000230000000023
#0441b:0000230000000023
#04410:0041
#0521a:0000142414000000
#05212:1600241424000000
#05218:26
#05210:0041
#05615:00000014
#0561a:1424
#05616:0014
#05619:00000024
#0531a:0014
#05316:0024
#05416:0014
#05412:0014
#05516:00000000000000000000001400000000
#0551a:0014
#05512:0000000000000014
#06418:14
#06414:14
#0611a:0014
#06112:0014
#0241b:0013000000000000
#02412:0000001300000000
#02415:0013000000000013
#02418:0013
#0251b:0013000000000013
#02515:00130013
#02518:0000001300130000
#02512:0013
#02510:0041
#03418:13000000000000130000000000000000
#03412:0013000000000000
#0341b:00130000
#03415:0000001300000000
#04212:13000023
#04218:13000013
#04015:00000033000000001300000000000033
#04012:00000000000000000000003313000000
#0401b:00000033000000001300000000000033
#04018:00000000000000000000003313000000
#04014:00003300000000000033000000003300
#04013:00330000000000000000330000330000
#0401a:00003300000000000033000000003300
#04019:00330000000000000000330000330000
#04115:13000000000000331300000000000000
#04112:00000033130000000000000000000000
#0411b:13000000000000331300000000000000
#04118:00000033130000000000000000000000
#04114:00330000000033000000000000000000
#04113:00003300003300000000000000000000
#0411a:00330000000033000000000000000000
#04119:00003300003300000000000000000000
#04315:1323
#04318:0000130000000023
#0431b:2323
#04312:0000230000000023
#0431f:0021
#0451b:1323
#04515:13
#04518:0000230000000023
#04512:00230000
#05818:0013000000000023
#05812:0000000000230000
#05815:00000023
#00118:0013
#0011b:23
#00318:0013
#00315:0013
#00312:13
#0031b:13
#00412:0013
#00618:0013
#00615:0013
#01615:0000000000000013
#01618:00000013
#0141b:0013
#01412:0013
#01318:0000003313000000
#01315:0000003313000000
#0131b:23
#01319:00000033000000000000000000000000
#01314:00000033000000000000000000000000
#0491a:0014
#04912:00000000000000001400003400003400
#04612:2313
#04619:00000013
#04615:0000002300000000
#04618:0023
#04613:00000023
#04714:13
#0471b:00130000
#0471a:2324
#04715:00230000
#03715:0013
#0371b:00230000
#03718:23
#03818:0013
#03815:23
#0381b:0023000000000000
#02618:0000000000130000
#02615:00001313
#0261b:0000000000000013
#02612:0000001300000000
#02718:13130000
#02715:0013000000000000
#02912:00000013
#02918:00000013
#01518:0013
#01515:0013
#03612:1323
#0361b:1323
#03615:00000023
#03515:13000000000000000000230000230000
#0351b:13
#0351f:0011
#03518:00000000000000000000002300002300
#03015:00000000001300000000000000000000
#03012:0013
#03018:0000001300000000
#03315:00000000000000000000000000000013
#03310:0041
#0631a:3414
#06312:0014
#06319:00000000000000000000003400000000
#06318:0000000000000034
#06313:00000000000000000000003400000000
#06314:0000000000000034
#06214:0014
#06218:0014
#06219:00000000000000000000003400000000
#0621a:0000000000000034
#06512:00260000
#06518:00260000
#0391b:0023
#03918:23000000000000000000003300000000
#03912:00002300000000000000003300000000
#03913:0000000000330000
#03914:00000000000000000033000000000000
#03919:0000000000330000
#0391a:00000000000000000033000000000000
#0591a:0024000000000000
#0001b:00000023
#00518:0000000000000023
#05012:34000034000034003400003400003400
#03119:00000000000000000000000000330000
#03214:00000000000000000000000000330000
#00910:0041
#0575b:0000000000000063
#0175b:0063
#01855:0063
#04452:5323
#04458:5323
#04455:00130000
#0445b:00130000
#0525a:0024
#05252:0024
#0535a:0064
#05356:0064
#05358:00000016000000000000000000000000
#05352:00000016000000000000000000000000
#05456:0054
#05452:0054
#06458:54
#06454:64
#0615a:0064
#06152:0054
#0195b:0063
#02058:0053
#0205b:00000063
#02255:0063
#02352:0053
#02458:0053
#04252:23
#04258:23
#04055:0063
#04052:00000053
#0405b:0063
#04058:00000053
#04155:6363
#04152:00530000
#0415b:6363
#04158:00530000
#0455b:6363
#04555:63
#04558:00130000
#04552:00130000
#0565a:64
#05858:0053000000000000
#00158:0053
#0015b:63
#00358:0053
#00355:0063
#00352:53
#0035b:63
#00452:0053
#00658:0053
#00655:0063
#0145b:0023
#01452:0023
#01358:0053
#01355:0063
#0495a:0064
#04952:0054
#02158:00530000
#01558:0053
#01555:0063
#0255b:0000000000000063
#03458:00000000000000530000000000000000
#03555:63
#0355b:63
#0635a:0064
#06352:0054
#06254:0064
#06258:0054
#06552:00160000
#06558:00160000
#04355:0023
#0435b:0023
#04652:53
#0295b:0013
#02955:0013
#0013b0:1300000000000033
#001380:0000003333000000
#0023a0:33
#002390:0033000000000000
#002380:00330000
#0023b0:00000033
#0033b0:33
#003380:0033
#0043b0:3323
#002321:00000013
#003321:33
#003351:0033
#004321:3333
#005351:33000033000033333300000000000000
#006351:0053
#006321:0000000000000053
#008321:0000000000000033
#009321:33
#009351:0000003333000000
#012321:0023
#005380:0000000000000013
#006380:330000000000000000000000000000000000330000000000000000000000000000000000330000000000330000000000330000000000000000000000000000000000000000000000000000000000000000000000000000000000005600000000
#0063b0:000000000000000000000000000000000000000000535353
#006390:000000000000000000000000000000000000000000000000000000000000000000000000000000000000000000000000000000000000000000000000000000000000000000000000000000000000000000000000000000000055000000000000
#0063a0:00000000000000000000000000000054
#0073b0:000000005300530000530053005300530000000000530053000053005300530053530053000000530053000000530000530053005300000000530053000053005300530053005300005300530053000053005300530053530053005300000053
#0073a0:000000000054000000000000000054000000000000000000000000000000005400000000000000005400000000000000000000000000000000005400000000000054000000540000000000005400000000540000005400005400000000540000
#007390:000000000000000055000000550000000000000000000000000000000000000000005500000000000000000000000000000000550000000000000000000000550000000000000000000055000000000000000000000000000000550055000000
#007370:000000000057000000000057000000000000000000000000000000000000000000000000000000000000000000000057
#007380:000000000000000000000000000000000000000000000000000000560000000000000000000000000000000000005600000000000000000000000000000000000000000000000000000000000000000000000000000000000000000000000000
#008380:5600000000000000000000000056000000000000000000000000000000000000
#0083a0:005400000000000000000000000054000000000000000000000000005400000000000000000000005400000000000000000000000000000000000000000000000000000000000000000000000000000000000000000000000000000000000000
#008360:005800000000000000000000000000000000000000000000000000000000000000000000000000000000000000000000
#0083b0:000000530000000000000000005300530053000000000000005300530053000000000000000053000000530000000000000000000000000000000000000000000000000000000000000000000000000000000000330000000000000000000000
#008390:000000000000000000000000000000005500000000000000000055000000000000000000000000000055000000000000000000000000000000000000000000000000000000000000000000000000000000000000000000000000000000000000
#0093b0:33
#009380:0000003333000000
#0123b0:0023
#0133b0:13
#013390:00000033000000000000000000000000
#013380:0000003333000000
#0143b0:0053
#015380:0033
#0163b0:0023
#013321:13
#013341:00000033000000000000000000000000
#013351:0000003333000000
#014321:0053
#015351:0033
#016321:0023
#0173b1:0013
#017381:00000023
#018351:0013
#018321:00000023
#0193b1:0013
#019381:00000023
#020381:0013
#0203b1:00000033
#021381:23
#021381:00130000
#0213b1:0023
#022351:0013
#022321:00000023
#023321:0013
#023351:00000023
#024381:0013
#0243b1:00000023
#0253b1:0000000000000013
#026381:0023000000000000
#0273b1:0013
#027381:00000033
#028381:0033
#0283b1:00000033
#0293b1:0023
#027350:0013
#028350:33
#028320:00330000
#029320:33
#029350:00332300
#0303b0:13000023000000000000000000000000
#0313b0:0000000013330000
#031390:00000000000000000000000000330000
#032380:33
#0323b0:00230000
#032320:0000000013330000
#032340:00000000000000000000000000330000
#033350:33
#033320:00230000
#033380:0013
#0333b0:00000023
#034380:00000000000000130000000000000000
#0343b0:0000000000000033
#0353b0:33
#035380:0023
#035351:13
#035321:0023
#0373b1:0000000000130000
#037381:0000000000000023
#0383b1:0013000000000000
#038381:0000002300000000
#038321:0000000000130000
#038351:0000000000000023
#039321:0013000000000000
#039351:0000002300000000
#039351:0013
#039341:00000000000000000033000000000000
#039331:0000000000330000
#039321:00000000000000000000003333003300
#040321:33000000000000000000003333000000
#040331:00330000000000000000330000330000
#040341:00003300000000000033000000003300
#040351:00000033330033003300000000000033
#041351:33000000000000333300000000000000
#041341:00330000000033000000000000000000
#041331:00003300003300000000000000000000
#041321:00000033330000000000000000000000
#042321:53
#042351:0023
#0393b0:0013
#0393a0:00000000000000000033000000000000
#039390:0000000000330000
#039380:00000000000000000000003333003300
#040380:33000000000000000000003333000000
#040390:00330000000000000000330000330000
#0403a0:00003300000000000033000000003300
#0403b0:00000033330033003300000000000033
#0413b0:33000000000000333300000000000000
#0413a0:00330000000033000000000000000000
#041390:00003300003300000000000000000000
#041380:00000033330000000000000000000000
#042380:53
#0423b0:0023
#043350:0013
#043320:00000000000000000000002300000000
#0433b1:0013
#043381:00000000000000000000002300000000
#044321:13
#044351:00230000
#044380:13
#0443b0:00230000
#044380:0013
#0443b0:00000000000000000000002300000000
#044321:0013
#044351:00000000000000000000002300000000
#0453b1:13
#045381:00230000
#045350:13
#045320:00230000
#0453b0:0013
#045380:00000000000000000000002300000000
#046320:13
#046350:00000023000000000000000000000000
#047320:0014
#047330:00000000000000000000003400000000
#047340:0000000000000034
#048340:3400003434000000
#048330:00000000000000000000003400000000
#048320:0000000000000034
#049320:34000000000000003400003400003400
#050320:34000034000034003400003400003400
#051320:0000002600000000
#0473a1:0014
#0483a1:34
#048391:00000034000000000000000000000000
#048381:0000003434000034
#049381:34
#049391:00000034000000000000000000000000
#0493a1:0000003434000000
#0513a1:34000034000000000000000000000000
#051381:0000002600000000
#0523a1:0014
#053381:36000026000000000000000000000000
#052320:0014
#053320:36000026000000000000000000000000
#053360:0014
#054320:00343400
#055360:00240000
#0533a1:0014
#054361:00343400
#0553a1:00240000
#0563a1:14
#056361:00240000
#0573b1:0000000000000013
#058381:0033000000000000
#0583b1:0000002300000000
#059321:0014000034000000
#060321:3434
#061361:34
#061321:0034
#062341:0054
#063321:0034
#063331:00000000000000000000003400000000
#063341:0000000000000034
#064341:34
#065321:26
#0593a0:0014000034000000
#060360:34
#0603a0:0034
#0613a0:3434
#062380:0034
#062390:00000000000000000000003400000000
#0623a0:0000000000000034
#0633a0:3434
#063390:00000000000000000000003400000000
#063380:0000000000000034
#064380:34
#065380:26
