This file was generated by Ched 2.7.0.0.
#TITLE ""
#ARTIST ""
#DESIGNER ""
#DIFFICULTY 0
#PLAYLEVEL
#SONGID ""
#WAVE ""
#WAVEOFFSET 0
#JACKET ""
#REQUEST "ticks_per_beat 480"
#00002: 4
#BPM01: 160
#00008: 01
#TIL00: "0'0:1"
#VOLUME: ""
#HISPEED 00
#MEASUREHS 00
#0171a:0014
#01714:14
#01710:0041
#0181a:14
#01812:0014
#01918:0014
#01912:14
#02018:14
#02014:0014
#02114:14
#0211a:0014
#02318:14
#02312:0014
#02212:14
#02218:0014
#02214:00000014
#03318:0014
#03310:0041
#03414:14
#0371a:0014
#03718:24
#03714:00240000
#03818:0014
#03812:24
#04012:14
#04014:00000014
#04018:0024
#04114:00140000
#04118:2424
#04316:00000014
#04318:14
#04314:00140000
#0431a:0024
#0431f:0021
#04412:1424
#04416:00000014
#0441a:00240000
#04410:0041
#0451a:14
#04518:0014
#04514:00000014
#04512:00240000
#05114:0014
#05118:00000014
#05213:15
#05218:00150000
#05210:0041
#04214:00000014
#01614:0014
#01618:00000014
#02412:14
#0241a:0014
#0251a:14
#02514:0014
#02510:0041
#02614:14
#02618:0014
#02718:14
#02712:0014
#02914:0014
#03018:14
#03014:0014
#0281a:0014
#01417:0014
#04814:0014
#04718:2414
#04714:00240000
#0461a:14
#04612:00140000
#04618:0024
#04614:00000024
#0351f:0011
#03914:24
#0391a:0024
#05312:26
#05612:0024
#05616:00000024
#0571a:24
#05716:00240000
#05712:0024
#06318:24
#06314:0024
#06418:24
#03618:0024
#03614:00000024
#0051a:24
#01312:24
#0131a:0024
#0501a:3434
#00910:0041
#02752:0054
#0285a:0064
#02854:14
#01457:0024
#04854:0064
#04758:0054
#0445a:00140000
#04552:00140000
#05352:16
#06354:0014
#0135a:0064
#05158:16
#06254:0014
#06556:00180000
#02958:14
#0013a0:14
#001390:0034
#002380:24
#003320:14
#003330:0034
#004340:24
#0053a0:14
#005380:0034
#006380:34
#0063a0:0034
#0093a0:3434
#012380:0024
#005321:14
#005341:0034
#006341:34
#006321:0034
#009321:3434
#012341:0024
#0133a1:0014
#014371:0054
#0153a1:0024
#027321:0014
#028341:24
#0283a1:0014
#029381:24
#031381:0014
#0323a1:24
#032341:0014
#033321:24
#0343a1:0014
#035381:24
#035321:0014
#036341:24
#041381:0014
#042381:0024
#047381:0014
#0483a1:24
#048341:0014
#049321:24
#0493a1:0014
#0503a1:3434
#051381:26
#052321:0016
#053321:26
#0533a1:0014
#054381:00343400
#0563a1:24
#057321:0000000014000034
#058341:0000003400000000
#059321:0034000034000000
#060341:34
#060321:0034
#061341:34
#061321:0034
#062341:0024
#064381:14
#065361:58280000
