This file was generated by Ched 2.6.4.0.
#TITLE ""
#ARTIST ""
#DESIGNER ""
#DIFFICULTY 0
#PLAYLEVEL
#SONGID ""
#WAVE ""
#WAVEOFFSET 0
#JACKET ""
#REQUEST "ticks_per_beat 480"
#00002: 4
#BPM01: 160
#00008: 01
#TIL00: ""
#HISPEED 00
#MEASUREHS 00
#0211f:11
#0211a:14
#0051a:14
#00510:41
#00614:14
#00718:14
#00812:14
#0091a:14
#01014:14
#01118:14
#01212:14
#0131a:14
#0141a:14
#01514:14
#01510:41
#01614:14
#01818:14
#01718:14
#01912:14
#02012:14
#02212:14
#02318:14
#02414:14
#02912:0016
#0291f:21
#02918:26
#03018:16
#03012:0016
#03212:16
#03218:0016
#03318:0016
#03312:16
#03412:16
#03418:0016
#03618:16
#03612:0016
#03718:1616
#03812:1616
#03918:16
#03912:0016
#04112:1616
#04110:41
#04218:1616
#04312:16
#04318:0016
#0491a:14
#04914:0014
#05018:14
#05012:0014
#05512:0016
#05518:26
#05510:41
#05618:16
#05612:0016
#05718:16
#05712:0016
#05918:0016
#05912:16
#06012:16
#06018:0016
#06112:16
#06118:0016
#06318:1616
#06412:1616
#06512:0016
#06518:16
#06510:41
#06712:1616
#06818:1616
#06918:0016
#06912:16
#03110:41
#0013a0:14
#0023a0:24
#003320:14
#004320:24
#025380:14
#026380:24
#027340:14
#028340:24
#031380:1626
#035320:1626
#040380:1626
#044320:1626
#0453a0:14
#045390:0034
#046380:3424
#047320:14
#047330:0034
#048340:3424
#0513a0:1424
#052320:14
#053320:3434
#054320:34342400
#058380:1626
#062320:1626
#066380:1626
#070320:16
#071320:26
