This file was generated by Ched 2.6.4.0.
#TITLE ""
#ARTIST ""
#DESIGNER ""
#DIFFICULTY 0
#PLAYLEVEL
#SONGID ""
#WAVE ""
#WAVEOFFSET 0
#JACKET ""
#REQUEST "ticks_per_beat 480"
#00002: 4
#BPM01: 160
#00008: 01
#TIL00: ""
#HISPEED 00
#MEASUREHS 00
#0211f:11
#0211b:000000130000000013000013
#02116:00000014
#02112:000000130014000000000000
#02117:000000000013000000000000
#02118:26
#01318:001300000000
#01315:00130000
#0131b:230000000013000000130000
#01312:2313
#01316:000000000000000000000013
#01412:00131300
#01417:00130000
#0141b:13000013
#01416:00000013
#01517:000000000000000000000013
#01515:000000130013000000000000
#0151b:2313
#01512:00000013
#01518:001313000000
#01510:41
#01718:000013000013000000000000
#01712:23130000
#0171b:000000000000000013000013
#01715:00001313
#01818:000013000013000000000000
#01812:13130013
#0181b:00000013
#01815:0013
#0011b:000013000000000000000013
#00115:00130000
#00118:000000000013000013000000
#00112:24
#0011a:24
#00212:16
#00216:00000012
#0021a:00120000
#00218:0012
#00312:240013000000000000000013
#00318:00130000
#00315:000000000013000013000000
#0031a:24
#00418:160000000013
#00415:000000000000000000130013
#00416:0012
#00414:00120000
#0041c:0012
#00515:000000130013000000130013
#00518:000013000013
#0051b:2313
#00512:23
#00510:41
#0061a:1414
#00617:00140000
#00618:000000000000000000130013
#00615:000000000013000000001300
#00612:001300000000
#00718:000000130013000000130013
#00715:000013000013
#00712:2313
#0071b:23
#00812:1414
#00815:000000140000000000001300
#0081b:000013000000000000130000
#00818:000000000013000000000013
#00912:230000000013000000000013
#00915:00130013
#00918:000013130013
#0091b:13
#0111b:230000000013000000000013
#01118:00130013
#01115:000013130013
#01112:13
#01012:000000160013000000130000
#01018:160000160013
#01015:000000000000000000000013
#0101b:001300000000
#01915:000000000013000000130000
#0191b:2313
#01912:230000000000001300000000
#01918:000013
#0191a:000000000000000000000014
#02012:140000000000130000000013
#02015:000013
#02316:000000120012000000001200
#02318:000000001200000000120012
#02312:000000242400
#0231a:242400000000
#02416:000014
#02412:240000002400000000140000
#0241a:240024000000240000140000
#02513:00000012
#02514:0012
#02515:00120000
#02516:12
#0261b:00120000
#0261a:0012
#02619:00000012
#0271c:003200320032123200320032
#02718:12
#02712:12
#02716:003232123232
#02918:000013000013000000000000
#02915:00130000
#02912:2313
#0291f:21
#0291b:23
#0301b:000013000013000000000000
#03012:00130000
#03016:0013
#03115:000000000013
#03118:000000001600000016000013
#0311c:001200000000
#03112:001600160000
#03110:41
#03212:1313
#03215:0013000000000000
#0321b:00131300
#03218:000000000000000000133300000000000000000000000000
#03315:000013000013000000000000
#03318:00130000
#0331b:2313
#03312:23
#03412:000013000013000000000000
#0341b:00130000
#03417:0013
#03515:000000000000000000000013
#03518:001600160013
#03512:001216001600
#0391b:000000130013000000130000
#03915:000013000013
#03912:000000131300
#03918:000000000000001300000013
#04012:13000013
#04015:000000130013000000000000
#04018:001300000000
#0401b:0013
#0461b:000000130013000000000000
#04612:1413
#04616:001300
#04614:00000013
#04617:230000000000000000000013
#04619:000013
#04512:2414
#04516:00240014
#0451b:00230023
#04517:0023
#0451a:24
#04712:14230023
#0471a:0014
#04716:00242314
#04812:000000130013000000000000
#0481a:14
#04817:001300
#04819:00000013
#04816:230000000000000000000013
#0481b:0013
#04814:000013
#05017:00130000
#05012:000000001300000000000013
#0501b:230000000013000000000000
#05016:1413
#05112:000000140000240000000014
#05116:000014000014
#0511a:240000000014000000140000
#05218:16
#0541b:13
#0541c:003232323232000000000000
#0551a:241400001400
#05512:240000000014000000000000
#05516:00242424
#05510:41
#0561a:001400001400
#05612:001400000014000000000014
#05616:24242424
#05712:001400000014000000000000
#0571a:001400001400
#05716:24242424
#05817:13
#05816:0000001400140014
#05812:00240024
#0581a:00242400
#06216:121200121200
#06218:000000120012000000000000
#0621a:000000000000000000120012
#06312:000000241400
#06316:243434000000000000240000
#0631a:0024
#06416:001400001400000000000000
#06412:241400261600
#0641a:000000240014000000000000
#06418:000000000000000000260016
#06512:241400241400
#06516:001400001400000000240000
#0651a:000000240014000000000000
#06510:41
#06616:1300001400140014
#0661a:00240024
#06612:00242400
#0701b:13
#07017:00000012
#04315:000000130013000000130000
#0431b:000013000013
#04318:000000131300
#04312:000000000000001300000013
#04418:13
#04416:000013000000000000140000
#0441b:000000130013000000000000
#04412:000000131300
#04118:001300000000
#0411b:230000000013000000000000
#04112:130000000000230000000023
#04115:00130000
#0411a:000014
#04116:000000000000000000000000000000000000001400000000
#04110:41
#0421b:001300000000
#04216:000000130013000014000000
#04212:000013
#0421a:0024
#03712:120000000032000014000000
#03716:000000000000120000000000000000000000001400000000
#0371c:12
#0371b:000000000000230000000023
#03718:003200000000
#03812:001300240000
#03817:000000130013000000000000
#0381b:000013
#03816:000014
#05912:001400001400
#0591a:240000000014000000000000
#05916:00242424
#0361b:1313
#03618:0013000000000000
#03612:00131300
#03615:000000000000000000133300000000000000000000000000
#01212:1616
#01218:00160000
#02212:260000130000000013000000
#02216:000000000013000000140000
#02218:001300000000
#0221a:000000000014000000000000
#04916:0014
#04912:00240014
#04917:00230023
#0491a:24
#0491b:0023
#06012:001400001400
#0601a:001400000014000000000014
#06016:24242424
#0611a:001400000014000000000000
#06112:001400001400
#06116:24242424
#0671a:000000240014000014000000
#06712:241400240000
#06716:000000001400000000240000
#06816:001400001400000000000000
#0681a:241400000000
#06812:000000240014000000260016
#06818:000000261600
#0691a:241400241400
#06916:001400001400000000240000
#06912:000000240014000000000000
#07112:16
#07118:26
#0721c:0012
#07212:0012
#07218:000032
#07216:000032
#0161b:00131300
#01616:00130000
#01612:13000013
#01617:00000013
#0531c:00323232
#01352:0053
#01452:0053
#01457:00530000
#0145b:53
#01456:00000053
#0155b:0063
#00152:14
#0015a:14
#00352:14
#0035a:14
#00252:66
#00458:56
#0045c:0022
#0055b:0053
#0065a:1414
#00657:00140000
#00752:0063
#00852:1414
#00855:00140000
#01155:0063
#01152:63
#01852:00630000
#01755:00000063
#01752:00630000
#02052:14
#01955:00000053
#0195b:53
#01952:63
#02158:16
#02156:00000014
#02152:000000000064000000000000
#02752:52
#02758:52
#02756:0022
#0275c:0022
#02856:00000014
#02952:1353
#0295b:130000000000000000000013
#02956:000000000000000000000014
#03056:000000000000630000000014
#03052:000000000000000000000013
#03252:5353
#03255:0023000000001300
#0325b:00636300
#03258:0000002300001300
#0335b:1363
#03352:130000000000000000000013
#03356:000000000000000000000014
#03457:0053
#0345b:000000000000000000000013
#03456:000000000000000000000014
#04652:54
#04556:00540054
#04552:1454
#0455a:14
#04752:14
#0475a:0064
#04756:00640064
#0485a:64
#04952:00540054
#0495a:14
#04956:0054
#05056:5453
#05456:00000014
#0545b:23
#05258:56
#0555a:14
#05552:14
#05556:00000054
#05852:00540054
#05856:0000002400240024
#0585a:0064
#05952:14
#0595a:14
#05956:00000064
#0705b:63
#07057:00000022
#07158:16
#07152:56
#04458:53
#04456:00000014
#04057:00000013
#0405b:0053
#04052:53
#04256:000000000000000054000013
#0425a:000000000000540000000014
#04252:000053
#04152:530000000000000000000053
#0415a:000000000000000054000014
#04156:000000000000000000000000000000000000002400000000
#04155:00630000
#03752:000000000000000064000014
#0375b:000000000000000000000063
#03756:000000000000620000000000000000000000002400000000
#0375c:62
#0385b:000063
#03856:000064
#03852:000000000000640000000014
#03857:000000000000000000000013
#06656:0000002400240024
#0665a:00640064
#06652:0054
#06752:14
#0675a:14
#06756:00000064
#05756:00000054
#06156:00000064
#06356:24000054
#06353:001a0000
#06452:0016
#06458:00000016
#06556:00000054
#06956:00000064
#0365b:6363
#03658:0023000000001300
#03652:00535300
#03655:0000002300001300
#00958:0053
#0095b:53
#01252:3636
#01258:00460000
#01058:4646
#01052:00360000
#02256:00000014
#02252:16
#0225a:000000000054000000000000
#03152:005600560000
#03158:005656
#03558:006600660000
#03552:006666
#05656:00001414
#06056:00001414
#06858:0016
#06852:00000016
#0725c:0052
#07252:0062
#0165b:0063
#01656:00630000
#01652:63
#01657:00000063
#001320:0013
#001350:000023
#001350:00000013
#001320:000000000000000000000023
#002320:1622
#0033b0:0013
#003380:000023
#003380:00000013
#0033b0:000000000000000000000023
#004380:16
#0043c0:0052
#0043b0:00000023
#0053b0:0013
#005380:00000023
#007320:0013
#007350:00000023
#0093b0:13
#009380:00230000
#009380:0013
#0093b0:00000023
#011320:13
#011350:00230000
#011350:0013
#011320:00000023
#013320:0013
#013360:00000023
#0143b0:1323
#014370:00330000
#014321:0013
#014361:00000053
#015321:23
#0153b1:0013
#015371:00000023
#016321:1323
#016361:00330000
#0163b0:0013
#016370:00000053
#0173b0:23
#017320:00130000
#017350:000000000023000000000000
#017350:00000013
#017320:000000000000000000000023
#018320:00130000
#018350:000000000023000000000000
#0193b0:13
#019380:00230000
#019321:13
#019351:00230000
#019351:00000013
#019321:000000000000000000000023
#0203b1:000000132300
#020381:000000000000000000130023
#021321:000000000014000000000000
#021361:000024
#0223a1:000000000014000000000000
#022361:000024
#023321:142400000000
#0233a1:000000142400
#024321:14
#024361:002400000000
#0243a0:001400000000
#024360:002400
#024321:001400
#024361:0024
#0253c1:12
#0263c1:22
#026320:12
#027320:32
#027360:003232323232
#028320:22
#027381:12
#0273c1:003200320032523200320032
#028381:22
#0283a1:0014
#028361:000000000000000000000000000000000000000000000000000000540000000034000000240000000000000000000000
#029321:0013
#029361:000000000000000054000024
#0293b0:000000000000000013000023
#030360:0013
#030320:000000000000000053000023
#030361:000000000000000014000024
#031321:001600000000
#031361:002200
#031380:001600
#0313c0:0022
#031321:0016
#031361:000022
#031380:000016
#0313c0:000000000022
#032320:13230000
#032350:0053000000000000
#0323b1:00133300
#032381:000000000000000000533300000000000000230000000000
#032320:0013
#032350:00000023
#0333b0:0013
#033360:000000000000000054000024
#033321:000000000000000013000023
#034371:0013
#0343b1:000000000000000053000023
#034360:000000000000000014000024
#035380:001622000000
#035321:000016220000
#035380:000000162200
#035321:000000001622
#0363b1:13230000
#036381:0053000000000000
#036320:00133300
#036350:000000000000000000533300000000000000230000000000
#0363b1:0013
#036381:00000023
#0373c1:12
#037381:000032220000000000000000
#037360:00120000
#037320:000000000032220000000000
#037320:000000000000000014000024
#037360:000000000000000000000000000000000000005400000000
#0373b1:000000000000000000000013
#038371:002300000000
#038321:000000000000140000000024
#038361:000034
#0383b0:000013
#038370:000000000000000000000023
#040320:13
#040350:002300000000
#0403b0:0013
#040370:00000023
#041320:13
#041350:002300000000
#041350:00130000
#041320:000000000023000000000000
#0413a0:000000000000000014000024
#041360:000000000000000000000000000000000000005400000000
#041321:000000000000000000000013
#042361:002300000000
#0423a1:000000000000140000000024
#042361:000034
#042320:000013
#042360:000000000000000000000023
#044380:13
#0443b0:002300000000
#045360:00140034
#045320:0034
#046320:34
#046360:00240000
#047360:00140034
#0473a0:0034
#0483a0:34
#048360:00240000
#049320:00140034
#049360:0034
#050360:34
#050320:00240000
#050360:0013
#050320:00000023
#050371:000000000000000000130023
#0513a1:14240000
#051321:00001424
#052381:16
#0533c1:32323232
#0543b1:33
#0543c1:003232323232000000000000
#054371:0027
#054320:0014
#054360:000000000000003434240000
#055360:00000014
#056320:24
#057360:00000014
#058320:24
#058320:00142400
#058360:0000005400000000
#0583a1:00001424
#058361:0000000000540000
#058320:00000014
#058360:0000000000000054
#059320:24
#059360:00000014
#0603a0:24
#061360:00000014
#0623a0:24
#062340:000000000000000000120022
#063360:143434000000000000000000
#063330:002a0000
#063360:00000014
#0643a0:24
#065360:00000014
#0663a0:24
#0663a0:00142400
#066360:0000005400000000
#066321:00001424
#066361:0000000000540000
#0663a0:00000014
#066360:0000000000000054
#0673a0:24
#067360:00000014
#068320:24
#069360:00000014
#070320:24
#0703b1:13
#070371:00005252
#071381:26
#071320:16
#072320:32323200
#072330:000052000052000000000000
#072360:000000000000000032520022
#0723c1:12323200
#0723b1:000052000052000000000000
#072381:000000000000000032520022
