This file was generated by Ched 2.6.4.0.
#TITLE ""
#ARTIST ""
#DESIGNER ""
#DIFFICULTY 0
#PLAYLEVEL
#SONGID ""
#WAVE ""
#WAVEOFFSET 0
#JACKET ""
#REQUEST "ticks_per_beat 480"
#00002: 4
#BPM01: 160
#00008: 01
#TIL00: ""
#HISPEED 00
#MEASUREHS 00
#0211f:11
#02112:23
#02118:23
#02115:000000000023000000000000
#0211b:000000000023000000000000
#00115:00130000
#00118:0013
#0011b:23000013
#00112:23
#00212:13
#00318:00130000
#00315:0013
#00312:23000013
#0031b:23
#0041b:13
#00512:13
#00518:00130000
#00515:0013
#0051b:00000013
#00510:41
#00612:1414
#00618:00140013
#0061b:000000000000000000003333
#00715:00130000
#00718:0013
#00712:00000013
#0081a:1414
#00814:00140000
#00815:00000013
#00812:000000000000000000003333
#00918:00131300
#00912:000000000013000000000000
#00915:00000013
#0091b:000000000000000000000013
#01015:130000003333000000000000
#01012:003333130000000000000000
#01018:00000013
#0101b:000000000000000000003333
#01112:00131300
#01118:000000000013000000000000
#0111b:00000013
#01115:000000000000000000000013
#0121a:1414
#01212:00140000
#01312:000000130000000000000013
#01318:00130000
#0131b:2313
#01315:2313
#01418:1313
#0141b:00130000
#0151b:000000130000000000000013
#01515:00130000
#01512:2313
#01518:2313
#01510:41
#01615:1313
#01612:00130000
#01718:00131300
#01715:000000000013000000000000
#01712:23
#0171b:23
#01918:000000000013000000000000
#01915:000000000000130000000033
#01912:230000000000003333130000
#0191b:23
#02012:0013
#02015:00000013
#02018:0013
#0201b:00000013
#02618:13
#0261b:00333333
#02515:13
#02512:00333333
#02712:13
#02716:003333333333333333333333
#02915:000000130000000033000000
#02918:001300000000
#0291b:230000000013000000000000
#02912:2313
#0291f:21
#0301b:001300000000
#03012:000000130000000033000000
#03015:0013
#03018:000000000013000000000000
#03115:000000000013
#03118:000000001300000000000013
#0311b:001300130000
#03110:41
#03212:0013
#03215:13
#0321b:000000000013000000000000
#03518:000000000013
#03515:000000001300000000000013
#03512:001300130000
#0361b:0013
#03618:13
#03612:000000000013000000000000
#03718:13
#03715:13
#0371b:000000231300
#03712:0023
#03815:001300000000
#0381b:000000130000000013000000
#03812:000000000013000000000000
#03818:0013
#04015:0013
#0401b:001300000000
#04018:000000000013000000000000
#04012:00130000
#03912:000000130000003333130000
#03915:000000003333130000003333
#04112:001300001300
#04118:00130000
#04115:000000000013000000000000
#0411b:2313
#04110:41
#04218:001300000000
#04212:000000130000000013000000
#0421b:000000000013000000000000
#04215:0013
#04418:0013
#04412:001300000000
#04415:000000000013000000000000
#0441b:00130000
#0431b:000000130000003333130000
#04318:000000003333130000003333
#0461b:0013
#04618:00000013
#04612:240013
#04615:000000000000000000000013
#04812:0013
#04815:00000013
#0481b:000013
#04818:000000000000000000000013
#0481a:24
#0501a:1414
#05015:1414
#05012:00000014
#05017:00000014
#04917:00240014
#0491a:0014
#04912:24240014
#04915:0014
#05212:14
#0521a:14
#05512:24130000
#0551b:0013
#05515:000013
#05518:00000013
#0551a:24
#05510:41
#05612:00130000
#05618:000000000000130000000033
#0561b:000000000000000033130000
#05715:00130000
#0571b:0013
#05712:000013
#05718:00000013
#05816:0014
#05812:00240014
#0591b:00130000
#05912:0013
#05918:000013
#05915:00000013
#0601b:00130000
#06015:000000000000130000000033
#06012:000000000000000033130000
#06115:00000013
#06118:00130000
#06112:0013
#0611b:000013
#06315:0013
#0631b:000013
#06312:00000013
#06316:00240000
#0641b:000013000000000000000033
#06415:000000130000000033000000
#06418:000000000013000000130000
#06412:0013
#06518:001300001300
#06512:1313
#06515:00130013
#0651b:000000000013000000000000
#06510:41
#06616:0014
#0661a:00240014
#06718:0013
#06712:001300001300
#0671b:00130013
#06715:000000000013000000000000
#06812:000013000000000000000033
#06818:000000130000000033000000
#06815:000000000013000000130000
#0681b:0013
#06915:001300001300
#0691b:1313
#06918:00130013
#06912:000000000013000000000000
#07012:13
#07016:000014
#02315:000000130000000013000000
#02318:000013000000000000130000
#02312:230000003333000000000000
#0231b:230000000000230000003333
#01815:00131300
#01818:000000000013000000000000
#0181b:23
#01812:23
#0621b:13
#06218:00130000
#06215:0013
#06212:00000013
#03318:000000130000000033000000
#03315:001300000000
#03312:230000000013000000000000
#0331b:2313
#03412:001300000000
#0341b:000000130000000033000000
#03418:0013
#03415:000000000013000000000000
#02418:000000000013000000000000
#02412:230000000013000000000000
#0221b:23
#02215:23
#02218:000000000023000000000000
#02212:000000000023000000000000
#04512:24
#0451a:00240000
#04514:0024
#04518:00000024
#0471a:24
#04712:00240000
#04718:0024
#04714:00000024
#05115:24
#0511a:24
#05117:0024
#05112:0024
#07113:2a
#00252:53
#0045b:63
#00652:1414
#00658:00140053
#0085a:1414
#00854:00140000
#00855:00000063
#01052:00530000
#01055:5313
#01058:00000053
#0125a:1414
#01252:00140000
#0135b:0063
#01355:0063
#01458:5353
#0145b:00530000
#01552:0053
#01558:0053
#01655:6363
#01652:00630000
#01955:0053
#01952:00000063
#02158:13
#02152:13
#02155:000000000053000000000000
#0215b:000000000053000000000000
#0225b:13
#02255:13
#02258:000000000063000000000000
#02252:000000000063000000000000
#02658:53
#02555:63
#02752:53
#02952:1353
#0295b:13
#02955:000000000000000000000013
#03255:53000013
#03252:0053
#0365b:0063
#03658:63000013
#0335b:1363
#03352:13
#03358:000000000000000000000013
#03552:006300630000
#03555:006300
#0315b:005300530000
#03158:005300
#03758:630000000000000000000013
#0375b:000000136300
#03755:53
#03752:0013
#04055:0063
#04052:00000013
#03952:00630063
#03955:0063
#04152:000053
#04155:000000000000000000000013
#04255:000000000000630000000013
#04252:000053
#04458:0053
#0445b:00000013
#0435b:00530053
#04358:0053
#04552:14
#04652:64
#0475a:14
#0485a:54
#04952:14540054
#04957:00540054
#0495a:0054
#04955:0054
#0505a:54
#05055:54
#05155:54
#0515a:54
#05157:0064
#05152:0064
#05454:00000018
#05552:14
#0555a:14
#05558:00000063
#05758:00000063
#05852:00640064
#05856:0064
#05956:14
#05955:00000053
#06155:00000053
#06356:00140000
#06352:00000063
#06452:0053
#06458:00000053
#06555:00000053
#06656:0054
#0665a:00540054
#06756:14
#0675b:00000053
#05658:0063
#0565b:00000063
#06055:0053
#06052:00000053
#0685b:0063
#06855:00000063
#06958:00000063
#07052:53
#07056:000024
#07153:1a
#02055:13
#02355:00530000
#02358:00000063
#01758:0063
#01855:0053
#03055:0063
#03052:000000000000000000000013
#03458:0053
#0345b:000000000000000000000013
#03858:000000000000530000000013
#0385b:000063
#02458:000000000063000000000000
#02452:000000000063000000000000
#002320:13
#002360:00000023
#0043b0:13
#004370:00000023
#006380:00000013
#0063b0:000000000000000000003333
#0073b0:23
#008350:00000013
#008320:000000000000000000003333
#009320:23
#010350:130000003333230000000000
#010320:003333330000000000000000
#010380:00000013
#0103b0:000000000000000000003333
#0113b0:23
#0133b0:0013
#013380:00000023
#013351:0013
#013321:00000023
#014381:1333
#0143b1:00330023
#015321:0013
#015351:00000023
#015380:0013
#0153b0:00000023
#016350:1333
#016320:00330023
#017380:0013
#0173b0:00000023
#018350:0013
#018320:00000023
#019350:000000000000130000000033
#019320:000000000000003333330000
#020350:23
#021350:000000000013000000000000
#021320:000000000000000033230000
#0213b1:000000000013000000000000
#021381:000000000000000033230000
#022381:000000000013000000000000
#0223b1:000000000000000033230000
#022320:000000000013000000000000
#022350:000000000000000033230000
#023350:00130000
#023320:000000003333230000000000
#023380:00000013
#0233b0:000000000000000000003333
#0243b0:23
#024380:000000130033000000000000
#0243b0:000000000000000033230000
#024321:000000130033000000000000
#024351:000000000000000033230000
#025351:13
#025321:00333333
#026321:23
#026380:13
#0263b0:00333333
#0273b0:23
#027321:13
#027361:003333333333333333333333
#028361:23
#029321:0013
#029351:000000000000000033000023
#030351:0013
#030321:000000000000000033000023
#0313b1:001300330000
#031381:003323
#032351:13
#032321:00230000
#032321:0013
#032351:00000023
#0333b1:0013
#033381:000000000000000033000023
#034381:0013
#0343b1:000000000000000033000023
#035321:001300330000
#035351:003323
#036381:13
#0363b1:00230000
#0363b1:0013
#036381:00000023
#037381:13
#0373b1:0023
#037350:13
#037320:0023
#0373b0:000013
#037380:000000000000000000000023
#038380:000000000000130000000023
#0383b0:000033
#039320:000000130000003333330000
#039350:000000003333330000003333
#040350:23
#040350:0013
#040320:00000023
#041320:000013
#041350:000000000000000000000023
#042350:000000000000130000000023
#042320:000033
#0433b0:000000130000003333330000
#043380:000000003333330000003333
#044380:23
#044380:0013
#0443b0:00000023
#046320:14
#046360:00240000
#0483a0:14
#048360:00240000
#049370:00140034
#0493a0:0034
#0503a0:34
#050370:00240000
#049321:00140034
#049351:0034
#050351:34
#050321:00240000
#051351:14
#051321:00240000
#0513a0:14
#051370:00240000
#051370:0014
#0513a0:00000024
#051321:0014
#051351:00000024
#053371:12320000
#053361:00003434
#054351:36360000
#054341:00003828
#055381:00000013
#0563b1:23
#056381:000000000000130000000033
#0563b1:000000000000000033330000
#057381:23
#057381:00000013
#0583b1:23
#058321:00140034
#058361:0034
#059361:24
#059351:00000013
#060321:23
#060351:000000000000130000000033
#060321:000000000000000033330000
#061351:23
#061351:00000013
#062321:23
#063361:143434240000000000000000
#063321:00000013
#064351:23
#064321:0013
#064351:000000000000000033230000
#064380:00000013
#0643b0:000000000000000000000033
#0653b0:23
#065350:00000013
#066320:23
#0663a0:00140034
#066360:0034
#067360:24
#0673b0:00000013
#068380:23
#0683b0:0013
#068380:000000000000000033230000
#068351:00000013
#068321:000000000000000000000033
#069321:23
#069381:00000013
#0703b1:23
#070320:13
#070360:000054
#071330:2a
