This file was generated by Ched 2.6.4.0.
#TITLE ""
#ARTIST ""
#DESIGNER ""
#DIFFICULTY 0
#PLAYLEVEL
#SONGID ""
#WAVE ""
#WAVEOFFSET 0
#JACKET ""
#REQUEST "ticks_per_beat 480"
#00002: 4
#BPM01: 160
#00008: 01
#TIL00: ""
#HISPEED 00
#MEASUREHS 00
#0211f:11
#02112:24
#00112:14
#00118:0014
#0031a:14
#00314:0014
#00512:14
#00518:0014
#00510:41
#00614:1414
#0061a:00140000
#0071a:14
#00714:0014
#00818:1414
#00812:00140000
#00912:14
#0091a:0014
#01014:1414
#01018:00140000
#0111a:14
#01112:0014
#01218:1414
#01214:00140000
#01312:14
#01314:00343400
#01418:1414
#01414:00140000
#0151a:14
#01518:00343400
#01510:41
#01614:1414
#01618:00140000
#01712:14140000
#01718:00001414
#01814:14140000
#0181a:00001414
#01918:0014
#01912:14
#0191a:00000034
#02014:0014
#02018:00000014
#02717:14
#0271a:003434343434343434343434
#0291a:00140000
#02914:0014
#0291f:21
#02912:24
#03018:14
#03014:00140000
#0301a:0014
#0321a:14
#03216:00140000
#03212:0014
#03112:14
#03110:41
#03312:00140000
#03318:0014
#0331a:24
#03414:14
#03418:00140000
#03412:0014
#03612:14
#03616:00140000
#0361a:0014
#0351a:14
#03818:14
#03812:00140000
#0381a:0014
#04214:14
#0421a:00140000
#04212:0014
#0411a:0014
#04112:00140000
#04118:14
#04110:41
#04012:1414
#0401a:00140000
#0441a:1414
#04412:00140000
#04618:0014
#04614:00000014
#04814:0014
#04818:00000014
#0501a:00140000
#05014:0014
#05018:00000014
#05112:14
#0511a:0014
#05215:16
#0551a:00140000
#05514:0014
#05518:00000014
#05512:24
#05510:41
#05612:14
#0561a:00140000
#05614:00001414
#05718:14
#05712:00140000
#05714:00000014
#0571a:0014
#05812:00140000
#05818:14
#05814:0034
#05912:00140000
#05918:0014
#05914:00000014
#0591a:24
#0601a:14
#06012:00140000
#06018:00001414
#06114:14
#0611a:00140000
#06118:00000014
#06112:0014
#06214:14
#06212:00343400
#06612:14
#06618:00140000
#0661a:0034
#07018:14
#06318:14
#0631a:0014
#06312:00000014
#06314:00240000
#06418:14
#06414:00140000
#0641a:00001414
#06512:14
#06514:0014
#06518:00140000
#0651a:00000014
#06510:41
#06718:00140000
#06712:0014
#0671a:00000014
#06714:24
#06814:14
#06818:00140000
#06812:00001414
#0691a:14
#06918:0014
#06914:00140000
#06912:00000014
#02312:24
#02318:24
#02314:0024
#0231a:0024
#0221a:24
#02412:24
#03714:24
#04514:24
#04718:24
#04914:24
#0491a:00240000
#04912:00000024
#07112:24
#0711a:24
#02618:34343434
#02518:00343434
#05316:00343434
#01458:0014
#01352:54
#0155a:64
#01654:0014
#01958:0064
#01952:14
#0205a:14
#02757:54
#02952:14
#03152:54
#0355a:64
#0335a:14
#03754:0014
#04052:0014
#0445a:0014
#04954:14
#05152:14
#0515a:0014
#05255:16
#05456:00000014
#05852:00540000
#06254:54
#07058:64
#06354:00140000
#06658:00540000
#06754:14
#002320:14
#002340:00000024
#0043a0:14
#004380:00000024
#013320:14
#013340:00343424
#0153a0:14
#015380:00343424
#019380:0014
#0193a0:00000034
#0203a0:24
#021320:14
#021340:000000000034000000240000
#0223a0:14
#022380:000000000034000000240000
#024320:14
#024340:00003424
#0253a0:14
#025380:00343434
#026380:34343434
#027370:34
#0273a0:003434343434343434343434
#0283a0:24
#031320:14
#031340:0024
#0353a0:14
#035380:0024
#037340:1424
#039340:14240000
#039380:00001424
#043380:14240000
#043340:00001424
#045340:14340000
#045320:00003434
#046340:34240000
#047380:14340000
#0473a0:00003434
#048380:34240000
#0493a0:00142400
#049320:00000014
#050320:24
#0533a0:14
#053360:00343434
#054360:343434343434340000240000
#058320:00140000
#058340:00003424
#062340:14
#062320:00343424
#066380:00140000
#0663a0:00003424
#070380:14
#0703a0:00000024
