This file was generated by Ched 2.7.0.0.
#TITLE ""
#ARTIST ""
#DESIGNER ""
#DIFFICULTY 0
#PLAYLEVEL
#SONGID ""
#WAVE ""
#WAVEOFFSET 0
#JACKET ""
#REQUEST "ticks_per_beat 480"
#00002: 4
#BPM01: 135
#00008: 01
#TIL00: ""
#VOLUME: ""
#HISPEED 00
#MEASUREHS 00
#0051a:14
#0061a:14
#00714:14
#00814:14
#00918:14
#00910:41
#01018:14
#01112:14
#01212:14
#0131a:14
#01414:14
#0151a:14
#01614:14
#01718:14
#01812:14
#01918:14
#02012:14
#04718:1616
#04612:1616
#04518:1616
#04812:1616
#04810:41
#02114:0014
#0211a:24
#02110:41
#0221a:14
#02312:14
#02318:0014
#02412:14
#0251a:14
#02514:0014
#02618:14
#02712:14
#02718:0014
#02814:14
#02918:14
#02914:0014
#02910:41
#0301a:14
#03114:14
#03118:0014
#03212:14
#05718:2616
#05710:0041
#05812:1616
#05918:1616
#06012:1616
#06118:16
#06112:0016
#06218:16
#06212:0016
#06318:1616
#06412:1616
#06812:0016
#07312:14
#0741a:14
#07514:14
#07618:14
#05212:0016
#0491f:11
#05318:26
#05412:26
#05518:26
#05612:26
#0561f:00000021
#03710:41
#0003a0:00000000000000000000000000000014
#0023a0:24
#002340:00000000000000000000000000000014
#004340:24
#033380:14
#0343a0:24
#035340:14
#036320:24
#037380:14
#0383a0:34
#0393a0:34
#040380:24
#041340:14
#042320:34
#043320:34
#044340:24
#049380:1626
#050320:1626
#051380:16
#052380:26
#065380:1626
#066320:1626
#067380:16
#068380:26
#069380:16
#070360:36
#071360:36
#072380:26
#077320:14000034000034000000000000000000
#082320:24
