This file was generated by Ched 2.7.0.0.
#TITLE ""
#ARTIST ""
#DESIGNER ""
#DIFFICULTY 0
#PLAYLEVEL
#SONGID ""
#WAVE ""
#WAVEOFFSET 0
#JACKET ""
#REQUEST "ticks_per_beat 480"
#00002: 4
#BPM01: 135
#00008: 01
#TIL00: ""
#VOLUME: ""
#HISPEED 00
#MEASUREHS 00
#00018:0013
#0001a:00000000000000000000000000000014
#00015:00000013
#00012:00000000000000000000000000000014
#00215:00000000130000001300000000130000
#00212:00001300000000000000000000000014
#00218:0000001300001300
#0021a:00000000000000000000000000000014
#00312:0013000000000013
#00318:0000131300000000
#00315:00000000001300000000000000000000
#00316:0013
#0031b:0013
#00317:0000000000000013
#0011b:0013000013001300
#00115:00130013
#00118:00000000001300000000130000330000
#00112:00000000000000000000000000330000
#0041b:00131300
#00419:00000000000000000000001300000000
#00417:0000000000000013
#00416:00000000000000140000000000000000
#00512:23000013000000000000000013000000
#00514:0000000000000013
#00517:13000000000000000013000000000000
#0051b:0000001300000000
#00612:0000001300001300
#0061b:13000013
#00616:13
#00615:0000000000000013
#00618:0000000000130000
#00712:13000013000000000000001300000000
#0071b:1300001300000000
#00717:00000000000000000000001300000000
#00716:0000001300000000
#01912:0013
#0191b:0013
#01915:13
#01918:13
#0221b:0000000000000013
#02215:2300001300000000
#02218:0000002323000000
#02818:2300002300130023
#02812:00000013000000001300000000000000
#02815:1300001300130000
#0281b:00000023000000002300000000000000
#02918:00000000000000000000001300002300
#02915:2300000000130000
#0291b:23000023000000000000000000000000
#02910:41
#03018:00000000000000000000001300000000
#03015:23000023000000000000000000001300
#0301b:2300000000000023
#03112:1300001300000000
#03115:00000013000000000013000000001300
#0311b:00000023000000000013000000000000
#03118:2300002300000023
#03614:1414000000000000
#03618:00140024000000000000000000000000
#04118:0012
#04112:12
#04216:12
#0421c:0012
#04312:12
#04412:00130013
#0441b:1313
#04518:0013000000000000
#04515:00130000
#04517:0013
#04514:0000000000130000
#04516:0000000000000013
#0451b:23
#0451a:0000002300000000
#04519:00000023
#04613:13
#04615:00130013
#04612:0000001300000000
#04618:0023000000130013
#0461b:0023
#05216:0000001400000000
#05212:00002400000000001400001400001400
#0521a:00002400000000002400002400002400
#05316:0000001400000000
#05312:14
#05318:00000000000000001400001400001400
#0531a:24
#05314:00000000000000002400002400002400
#05416:0000001400000000
#05418:14
#05412:00000000000000001400001400001400
#05414:24
#0541a:00000000000000002400002400002400
#05618:0013
#05615:00000000000000000013000026000000
#0561b:0000000000130000
#05612:24002400240024000000001300000000
#0561a:6424242400000000
#0561f:00000021
#0571b:1300130000000013
#05716:00130013
#05712:13
#05717:0013
#05710:0041
#05817:0000131300000000
#0581b:1300000000000013
#05812:0000001300000000
#05816:13
#0601b:0013
#06019:00000000000000000000001300000000
#06017:2300000000000013
#06016:0000001300000000
#06012:23
#06112:13000000130000000000001300000000
#0611b:0000001300000013
#06116:0013
#06118:00000000000000000000001300000000
#0621b:00000000000000001300001300000000
#06215:0013
#06218:1400001300000000
#06214:0014000000000000
#06312:1300001300000000
#0631b:1300001300000013
#06318:0013000000000000
#06315:00130000
#06316:00000000000000000013000000000000
#06317:00000013
#06416:00000013000000000000000000000000
#0641b:0000000000000013
#06415:00000000000000000000000000000013
#06417:0000001313000000
#06412:2400002424000000
#0641a:00000024000000000000000000000000
#06512:00131300
#0651b:13000013
#06612:00131300
#06616:00000013
#0661b:13000013
#06617:00130000
#06718:0000000000000013
#06717:1313
#06719:0013001300130000
#0671b:00130000
#06715:00130013
#06712:0013
#06812:1424
#0681a:2414
#06818:00000000000024000000002400000000
#06814:00000024000000000000000000002400
#07517:0000001300000000
#07516:0000000000000014
#0751b:00000000000000000000000000000013
#07512:23
#07616:140000000000000000000054
#07612:00000054
#07613:000000000000000000000000000000000000005400000000
#07614:000000000000000000000000000000000000000054000054
#07615:0000000000000054
#0081b:00131300
#00818:0000000000000013
#00816:00130000
#00812:0000000000000013
#0151b:00000013000000000000001300000000
#01516:00000013000000000000001300000000
#01512:1300001300000000
#01517:1300001300000000
#01616:00130000
#0161b:00130013
#01612:0013
#01712:1300000000130000
#01715:00000013
#01718:0000000000000013
#01716:00130000
#01717:13
#0171b:00130000
#0181b:13
#01816:1300001300000000
#01812:00000013000000000013000000000000
#01817:00000013000000000000000000000000
#02015:00130013
#02012:0013
#0201b:00230023
#02018:0023
#03514:0013131300000000
#03512:5300000014141414
#0351a:0000000014141414
#0351b:13
#03519:0013131300000000
#0371a:0012
#03718:12
#03710:41
#03814:0012
#0391a:0012
#04014:0012
#04718:00130000
#04716:0013
#04719:0000000000130000
#04717:0000000000000013
#0471b:13
#04715:0013000000000000
#04714:00000023
#04713:0000002300000000
#04712:23
#0481a:13
#04818:00130013
#0481b:0000001300000000
#04815:0023000000130013
#04812:0023
#04810:41
#05012:13000013
#05015:0033333313000000
#05018:0013
#0501b:00000013
#05019:0000000000330033
#05115:1333000000000000
#05118:1333000000000000
#05119:0000333300000000
#0511a:0000000033330000
#0511b:0000000000003333
#05112:0000000000000033
#05113:0000000033333300
#05114:0000333300000000
#05912:0013130000000000
#05917:00130000
#05916:0000000000130000
#0591b:0000000000130000
#06916:0014
#0691a:24
#06912:24
#0701a:00140000
#07016:24000014
#07012:0024
#07317:0000001300001300
#0731b:00000000000000000013000000001300
#07312:24000013
#07316:0000000000000013
#07412:13
#07416:00000013000000000000000000000000
#07417:0000001300000000
#0741b:00000000000000000013000000000000
#03316:0000001300000000
#03312:13000024000000000000000000000000
#03317:00000013000000000000000013000000
#0331a:24000000000024000000000000000053
#03318:00000000000000000000000000530000
#03319:0000000000000053
#0491b:0013
#0491f:11
#04912:23
#0491a:0000000000330000
#04919:00000033
#04918:0000000000000033
#02412:1313
#0241b:23000023000000001300000000000000
#02418:0000000000330000
#02415:0000000000330000
#02315:2300000013000013
#0231b:0000001300000000000000000000000000000000000000000000000000000000
#02312:0000000000000000000000001300000000000013000000000000000000000000
#02318:2300000000000023
#02515:00000023000013001300000000000000
#02518:23000000000000000000001300002300
#02715:0023001313000000
#02718:23000023000000000000130000000000
#0091b:23000013000000000000000013000000
#00919:0000000000000013
#00916:13000000000000000013000000000000
#00912:0000001300000000
#00910:41
#01017:13
#01012:13
#0101b:0000001300001300
#01016:00000013
#01117:00000000000013000000000000130000
#01112:13000000000013000000000000130000
#0111b:00000013000000000013000000000000
#01119:00000000000000000000001300000000
#01114:00000000000000000000001300000000
#01116:00000000000000000013000000000000
#01212:00131300
#01215:0000000000000013
#01217:00130000
#0121b:0000000000000013
#01312:1300001300000000
#0131b:00000013000000000000000013000000
#01316:00000013000000000000000013000000
#01317:0000001300000000
#01318:23
#01417:00000013000000000000000013000000
#0141b:1300001300000000
#01412:00000013000000000000000013000000
#01416:0000001300000000
#01415:23
#02118:1300000000330013
#02112:1300000000330000
#02115:0033000013000023
#0211b:0033000013000000
#02110:41
#02615:00000023000013001300000000000000
#02618:23000000000000000000001300002300
#03212:1300001313000000
#03215:00000013000000000000000000000000
#0321b:2300002323000000
#03218:00000023000000000000000000000000
#03417:0000001300000000
#03416:00000013000000000000000053000000
#03412:2400002400130000
#0341a:00000024000000000000000000000000
#0341b:53
#03415:00000000000000000000000000530000
#03414:00000000000000000000005300005300
#03413:00000000000000000000000000000053
#05512:14000026000014000000000000000000
#0551a:00000014000000000000140000000000
#05518:26000000000026000000005400005400
#05517:00000000000000000000000000540000
#05519:00000000000000000000000000000054
#05516:00000054
#07716:00000024000000000000000000000000
#0771a:2400002400000000
#07712:64
#08212:52
#07214:00000052
#0721a:00000052
#05558:4600004600000000
#05552:00000036000054000000000000000000
#05655:00000016
#0685a:14
#06852:0014
#0695a:14
#06956:0024
#06952:64
#07656:54
#00058:0043
#00055:00000033
#0005a:00000000000000000000000000000044
#00052:00000000000000000000000000000054
#0015b:00000063
#00155:00000063
#00152:00000000000000000000000000000013
#00158:00000000000000000000000000000013
#00358:0000006300000000
#0035b:0063
#00356:0063
#00357:0000000000000013
#00352:0000000000000063
#00552:33000063000000000000000000000000
#00557:63000000000000000023000000000000
#0055b:0000006300000000
#00656:63
#00652:0000001300000000
#00657:0000001300000000
#0075b:6300006300000000
#00757:00000000000000000000002300000000
#00752:00000053000000000000002300000000
#00756:0000005300000000
#00856:13530000
#0085b:1353
#01552:0000006300000000
#01557:0000006300000000
#01556:00000000000000000000002300000000
#0155b:00000000000000000000002300000000
#01752:53
#01756:00230000
#01757:53
#0175b:00230000
#01857:00000063000000000000000000000000
#0185b:63
#01852:00000000000000000023000000000000
#01856:0000006300000000
#01955:63
#01958:63
#01952:0023
#0195b:0023
#02055:13
#02058:13
#02858:0000000000230000
#02852:00006313
#0285b:00006313
#02855:0000000000230000
#03155:00000000000000000023000000000000
#0315b:00000000000000000023000000000000
#03152:0000006300000000
#03158:0000006300000000
#04152:62
#04158:0062
#04256:62
#0425c:0062
#04352:62
#05058:0063
#05055:0063
#05052:63000023
#0505b:00000023
#05155:63
#05158:63
#05252:0014000000000000
#0525a:0014000000000000
#05957:00630000
#05952:00630000
#05956:0000000000230000
#0595b:0000000000230000
#06352:0000006300000000
#06357:00000063
#06356:00000000000000000023000000000000
#0635b:0000000000000023
#0655b:63000013
#06552:00135300
#06652:00136300
#06656:00000023
#0665b:53000013
#06657:00230000
#07052:0064
#07056:64000024
#0705a:00240000
#07357:0000006300006300
#0735b:00000000000000000023000000002300
#07356:0000000000000023
#07352:14000063
#0745b:00000000000000000023000000000000
#07456:00000023000000000000000000000000
#07452:63
#07457:0000006300000000
#00456:00000000000000240000000000000000
#03356:0000006300000000
#0335a:1400001400000000
#03352:00000014000000000000000000000000
#0495b:0063
#05752:63
#05757:0063
#05756:00230000
#05856:63
#0585b:0000000000000063
#05857:0000006300000000
#00252:00000000000000000000000000000034
#0025a:00000000000000000000000000000064
#02452:0063
#0245b:0063
#02455:00000013
#02458:00000013
#01652:1363
#01657:13
#0165b:00630063
#02555:0063
#02558:53
#02755:0063
#02758:0000000000530000
#07752:34
#0775a:0000004400000000
#07756:00000014000000000000000000000000
#01057:53
#0105b:0000001300005300
#01056:0000001300000000
#01157:00000000000063000000000000230000
#01152:53000000000053000000000000230000
#0115b:00000063000000000023000000000000
#01159:00000000000000000000006300000000
#01154:00000000000000000000006300000000
#01156:00000000000000000023000000000000
#0095b:13000053000000000000000000000000
#00956:53000000000000000023000000000000
#00952:0000005300000000
#01256:13
#0125b:13
#01252:0063
#01257:00630000
#01352:5300006300000000
#01356:00000063000000000000000000000000
#01357:0000006300000000
#01358:13
#0145b:6300005300000000
#01457:00000053000000000000000000000000
#01456:0000005300000000
#02158:63000000000000000000001300000000
#02152:63000000000000000000001300000000
#0215b:00000013000000005300000000000000
#02155:00000013000000005300000000000000
#02252:00000013000000000000001300000000
#0225b:00000013000000000000001300000000
#0235b:0000002300000000000000000000000000000000000000000000000000000000
#02352:0000000000000000000000000000000000000023000000000000000000000000
#02358:53
#02355:0063
#02655:0063
#02658:53
#03252:0053
#0325b:0053
#03258:00000013
#03255:00000013
#03457:0000005300000000
#03452:1400001400000000
#0345a:00000014000000000000000000000000
#06052:33
#06057:33
#06056:0000006300000000
#06156:0053
#06152:00000000000000000000002300000000
#06255:0053
#0625b:00000000000000000000005300000000
#06254:0034000000000000
#06258:44
#06456:00000014
#06452:0054
#06757:2323
#06759:0053005300530000
#0675b:00230000
#05352:54
#0535a:54
#05354:0014000000000000
#05358:0014000000000000
#05458:54
#05454:54
#05452:0014000000000000
#0545a:0014000000000000
#0355b:13
#07552:13
#000320:00000000000000000000000000000014
#001360:0024000000000000
#001350:0000001323000000
#001350:00000013
#001320:00000000000000000000000000330023
#0013b1:00000013
#001381:00000000000000000000000000330023
#0023b1:0000000013230000
#002350:0000000000132300
#0023a0:00000000000000000000000000000014
#003360:0024000000000000
#003380:0000001300000000
#0033b0:0033
#003370:00000000000000000000002300000000
#003361:0013
#003321:00000000000000000000002300000000
#003321:0000000000000013
#004361:00000000000000540000000000000000
#005321:23
#005370:13
#0053b0:00000023000000000000000000000000
#005321:00000013000000000000000000000000
#005361:0000002300000000
#0053b0:0000001300002300
#005370:00000000000000000053000000000000
#006360:13
#006320:00000023000000000000000000000000
#006371:00000013000023000000000000000000
#0073b1:13
#007371:00000023000000000000000000000000
#007320:00000013000000000000005300000000
#007360:0000003300000000
#008360:23
#0073b1:0000001300000000
#007371:00000000000000000000005300000000
#0083b1:23
#008361:00130000
#008321:00000000000000000000002300000000
#0083b0:0013
#008380:00000000000000000000002300000000
#009360:13
#009320:00000023000000000000000000000000
#0093b1:00000013000000000000000000000000
#009371:0000002300000000
#009320:0000001300002300
#009360:00000000000000000053000000000000
#010370:13
#0103b0:00000023000000000000000000000000
#010361:00000013000023000000000000000000
#0103b1:00000013
#011371:23
#011320:13
#011360:00000023000000000000000000000000
#0113b1:00000013000000000053000000000000
#011371:00000000000033000000000000530000
#011391:00000000000000000000005300000000
#0123b1:23
#011320:00000000000013000000000000530000
#011360:00000000000000000053000000000000
#011340:00000000000000000000005300000000
#012360:23
#012370:00130000
#0123b0:00000000000000000000002300000000
#012321:0013
#012351:00000000000000000000002300000000
#013321:1300003300000000
#013361:00000033000000000000230000000000
#013370:0000001300000000
#0133b0:0000000000230000
#0143b0:1300003300000000
#014370:00000033000000000000230000000000
#014361:0000001300000000
#014321:0000000000230000
#015321:0000001300000000
#015361:00000000000000000000005300000000
#016321:23
#015370:0000001300000000
#0153b0:00000000000000000000005300000000
#016370:23
#0163b0:00130000
#016370:0023
#016321:0013
#016361:00000023
#0163b0:00000013
#017370:3323
#0173b0:00530000
#017321:1323
#017361:00530000
#0183b1:1300002300000000
#018371:00000033000000000000000000000000
#018360:0000001300002300
#018320:00000000000000000053000000000000
#0183b1:00000013
#019381:33
#0193b1:0053
#020381:23
#019350:13
#019320:0053
#020350:23
#021380:13
#0213b0:00003323000000000000000000000000
#021321:13
#021351:00003323000000000000000000000000
#021351:0013
#021321:00000000000000000000332300000000
#0213b0:0013
#021380:00000000000000000000332300000000
#022380:13
#0223b0:00000023000000000000000000000000
#022351:13
#022321:00000023000000000000000000000000
#022351:0013
#022321:00000000000000000000002300000000
#022380:0013
#0223b0:00000000000000000000002300000000
#023380:13000023000000000000000000000000
#0233b0:0000005300000000000000000000000000000000000000000000000000000000
#023351:13000023000000000000000000000000
#023351:00000000000000001300002300000000
#023321:0000000000000000000000000000000000000053000000000000000000000000
#023380:00000000000000001300002300000000
#0243b0:00000013000000003300000000000000
#024380:0000003300332300
#024321:00000013000000003300000000000000
#024351:0000003300332300
#025381:13
#0253b1:0023
#025350:0013
#026320:23
#026381:13
#0263b1:0023
#026350:0013
#027320:23
#027380:00000013000000002300000000000000
#027351:0013
#027321:0000000000000023
#027380:0000000000130000
#0273b0:0000000000000023
#028320:00001323
#028350:0000000000530000
#0283b1:00001323
#028381:0000000000530000
#029351:13000023000000000000000000000000
#029321:0000001323000000
#029380:0000000013230000
#0303b0:13000023000000000000000000000000
#030380:0000001323000000
#030321:00000000000000001300002300000000
#031321:0000001300002300
#031351:00000000000000000053000000000000
#031380:0000001300002300
#0313b0:00000000000000000053000000000000
#0323b0:0013
#032380:00000023
#032321:0013
#032351:00000023
#033361:0000001300000000
#033321:00000023
#034371:0000001300000000
#0343b1:0000000000230000
#037321:12
#038321:22
#0383c0:12
#0393c0:22
#039361:12
#040361:22
#040380:12
#041380:22
#041321:12
#041361:0022
#041380:0012
#0423c0:22
#042361:12
#042321:0022
#0423c0:0012
#043380:22
#043321:12
#044371:22
#049321:1333333333000000
#050321:33000053
#050351:0033333333000000
#051351:3333000000000000
#051341:0000333300000000
#051331:0000000033333300
#051321:0000000000000033
#052321:24
#0493b0:1333
#0493a0:0000000000330000
#049390:00000033
#049380:0000000000000033
#050380:3333
#050390:0000000000330033
#0503b0:00000033
#051380:3333000000000000
#051390:0000333300000000
#0513a0:0000000033330000
#0513b0:0000000000003333
#0523a0:24
#053320:14
#053340:0024000000000000
#0533a1:14
#053381:0024000000000000
#054341:14
#054321:0024000000000000
#054380:14
#0543a0:0024000000000000
#055320:0000001400000000
#055360:0000000000240000
#057320:1323
#057360:00530000
#057371:0013
#0573b1:00000023
#058361:13
#058321:00230000
#058371:0000001300000000
#0583b1:0000000000230000
#058360:0000000000130023
#0583b1:0000000000000013
#059371:0023000000000000
#059371:00130000
#0593b1:0000000000530000
#060371:23
#059320:00130000
#059360:0000000000530000
#060320:23
#060360:0000001300000000
#060320:0000000000000023
#061370:13230000
#061360:0000000013000023
#061320:00000000000000000000005300000000
#062350:0013
#062320:0000000000000023
#0623b1:00000000000000000000001300000000
#062381:0000000000000023
#063321:0000001300002300
#063361:00000000000000000053000000000000
#063370:00000013
#0633b0:0000000000000053
#064370:23
#064320:0014
#064360:00000024
#0653b0:13
#065370:0053000023000000
#065321:0013
#065361:0000000000530000
#066361:23
#0663b0:1323
#066370:00530000
#066321:0013
#066361:00000053
#067321:23
#067370:1353
#067390:0053005300530000
#0673b0:00530023
#069320:14
#069360:0054
#070320:24
#070361:1424
#0703a1:00540000
#070320:0014
#070360:00000054
#071320:345454545454545454545454
#071340:005400540054005400540054005400540054005400540054
#072320:54
#072330:0054000000000000000000000000000000000000000000000000000000000000
#072340:00000022
#0713a1:145454545454545454545454
#071381:005400540054005400540054005400540054005400540054
#0723a1:54000022
#072391:0054000000000000000000000000000000000000000000000000000000000000
#0733b1:13
#073381:00000023000000000000000000000000
#073350:00000013000000000000000000000000
#073320:0000002300000000
#073371:0000001300003300
#0733b1:00000000000000000053000000005300
#074371:23
#073320:00000013
#073360:0000000000000053
#074320:3300002300000000
#074360:00000053000000000000000000000000
#074371:0000001300002300
#0743b1:00000000000000000053000000000000
#074320:00000013
#075320:23
#0753b1:13
#075381:00000023000000000000000000000000
#075350:00000013000000000000000000000000
#075320:0000002300000000
#075320:0013
#075350:00000000000000000000002300000000
#075381:00000000000000000000001300000000
#0753b1:0000000000000023
#076361:14
#076321:0000005400002400
#077321:000000000000000000000000000000000000000000000000000000000000000000000000140000000000000000000000000000000000000000000000545554555455545554555455545655565556555655565556555655565556555655565556
#078321:545554555455545554555455545554555455545554555455545554555455545554555455545554555455545554555455545554555455545554555455545554555455545554555455545554555455545554555455545554555455545554555455
#079321:54
#082321:22
#033970:00000013
#0349b0:23
#034920:0000000000130000
#034960:00000053
#035920:23
#0559a0:0000000000140000
#055960:00000054
#0569a0:24
#076920:00000014
#076960:000000000000000000000054
#077920:24
