This file was generated by Ched 2.7.0.0.
#TITLE ""
#ARTIST ""
#DESIGNER ""
#DIFFICULTY 0
#PLAYLEVEL
#SONGID ""
#WAVE ""
#WAVEOFFSET 0
#JACKET ""
#REQUEST "ticks_per_beat 480"
#00002: 4
#BPM01: 135
#00008: 01
#TIL00: ""
#VOLUME: ""
#HISPEED 00
#MEASUREHS 00
#00215:00130013
#00212:00001300000000001300000000330000
#00218:0000001300130000
#0021b:0013
#00318:00001300001300000000000000001300
#00315:00131300
#0031b:0013
#00312:0000001300000013
#00515:0000000000000013
#00518:00000013000000000000000000000000
#0051b:1300001300000000
#00517:00000000000000000013000000000000
#00615:13000013
#00618:0000000000130013
#00612:00000013000000000000000000000000
#04116:0012
#04113:12
#04418:13131313
#05214:0014001400000000
#05218:14140000
#06115:13
#06118:0000001313000000
#0611b:00000000000000000000001300000000
#0631b:13
#06315:0013000000000000
#06318:00130000
#06312:0000001300000000
#06316:00000000000000000013000000000000
#06715:0000000000000013
#0671b:13
#06717:0000001300000000
#0151b:00000013000000000000001300000000
#01515:00000013000000000000001300000000
#01512:1300001300000000
#01518:1300001300000000
#01718:0000000000130000
#01715:00000013
#0171b:0000000000000013
#01716:13
#01812:1300001300000000
#01815:00000013000000000000000000000000
#05912:00140000
#05916:0000000000140000
#0591a:0014000000000000
#0731a:2400001400000000
#07314:00000014000000000000000000000000
#03312:1400001400000000
#03315:00000014000000000000000000000000
#02412:1313
#02415:00000033130033000000330000000000
#0241b:2313
#02418:00000033130033000000330000000000
#02512:0000000000000013
#02518:00000033000013000000000000000000
#0251b:2333
#02612:1333
#02615:00000033000013000000000000000000
#0261b:0000000000000023
#0131b:00000013000000000000000000000000
#01312:2300001300000000
#01318:2300001300000000
#01315:00000013000000000000000000000000
#06214:14
#06218:0014000000000000
#06215:0000001313000000
#06212:00000000000000000000001300000000
#00115:0013000000130000
#00118:00000013
#00119:00000000003300000000000000000000
#0011b:00000000000000000000000000330000
#00018:0013
#0001a:00000000000000000000000000000014
#00015:00000013
#00415:0000000000000013
#00412:00130000
#00418:00000000000000000000001300000000
#00715:0000001300000000
#00918:0000000000000013
#00915:00000013000000000000000000000000
#00912:1300001300000000
#00916:00000000000000000013000000000000
#00910:41
#00818:0000000000000013
#0081b:00130000
#00815:00000000000000000000001300000000
#0101b:00000013000000000000000000000000
#01018:13
#01118:0000000000000000000000001300000000000000000000000013000000000000
#0111a:0000000000000000000000000000000000130000000000000000000000000000
#01119:0000000000000000000000000000000000000000001300000000000000000000
#01215:0000000000000013
#01212:00130000
#01218:00000000000000000000001300000000
#01412:00000013000000000000000000000000
#0141b:2300001300000000
#01415:2300001300000000
#01418:00000013000000000000000000000000
#02312:1300000000000013
#0231b:0000001313000023
#02318:23
#02315:0000002323000000
#0351a:2400001400000000
#03517:00000014000000000000000000000000
#04218:0012
#0421b:12
#04316:0012
#04313:12
#04512:23131313
#04518:00130013
#0481b:23131313
#04815:00130013
#04810:41
#0511a:14
#05112:24
#05418:0000001400000000
#05414:0024000000000000
#05616:64241400
#0561a:00000024
#05612:0024002400000000
#0561f:00000021
#05619:00000000000000000000003400000000
#05618:0000000000340000
#05617:00000000000000000034000000000000
#05816:0000000000000014
#0581b:0000001300000000
#05812:0000000000140000
#05818:13
#05815:00130000
#06012:2414
#06016:00000000000000000000001400000000
#0601a:0000000000000014
#06018:0000001300000000
#06412:0000002400000013
#0641a:2424
#06416:00000024000000000000000000000000
#06512:00130000
#0651b:00000013
#06612:00130000
#0661b:00000013
#06916:0014
#0691a:24
#07017:00000014
#07015:00140000
#0701a:0024
#07012:24
#07116:0000000000000016
#07112:26
#07516:00000014000000000000001400000000
#07512:0000001400000014
#0751a:2424
#07412:14
#07416:0000001400000000
#0761a:140000000000000000000000000000000000000000003434
#07616:00000014
#07619:0000000000000034
#07618:000000000034
#07617:000000000000000000000000000000000000003400000000
#01917:0013
#0191b:13
#02212:0000000000000013
#0221b:0000001300000000
#02218:2300000000000023
#02215:0000002323000000
#0211b:13
#02112:0000000013000013
#02118:0033000000000023
#02115:0000000000330000
#02110:41
#04615:23131313
#0461b:00130013
#04718:23131313
#04712:00130013
#05712:1300000000000013
#0571b:0013
#05710:0041
#02818:00000024000000001400000000000000
#02815:0000000000000013
#02814:2400002400000000
#02912:33000033000013000000000000000000
#02918:0000000000000023
#02915:00000000000000003300333300000000
#02910:41
#03015:0000000000000013
#0301b:33000033000013000000000000000000
#03018:0033
#03118:13000013000013000000000000001300
#03112:23000023000023000000000000000000
#0321b:13000013000013001300000000000000
#03215:23000023000023002300000000000000
#02718:00003333000013000000000000000000
#0271b:2300000033330000
#0491f:11
#04912:24
#0681a:24
#06812:0024
#06818:00000000000024000000002400000000
#06814:00000024000000000000000000002400
#07712:00000024000000000000000000000000
#0771a:24
#03414:0000000000000024
#03418:00000024
#03412:0000000000240000
#03416:0024
#0341a:0000002400000000
#05318:0024000000000000
#05314:0000002424000000
#05512:0000002600000000
#05518:00000025000000000000000054000000
#05514:24
#0551a:0000000000540000
#05519:00000000000000000000005400000000
#05517:00000000000000000000000000540000
#05516:00000000000000000000000000005454
#02015:00230023
#02018:0023
#03710:41
#0821b:53
#0685a:14
#06852:0014
#0035b:0063
#00355:0063
#00358:0000000000000013
#00352:0000000000000013
#00558:00000063000000000000000000000000
#0055b:6300006300000000
#00557:00000000000000000023000000000000
#01552:0000006300000000
#01558:0000006300000000
#01555:00000000000000000000002300000000
#0155b:00000000000000000000002300000000
#01756:53
#04153:62
#04156:0022
#05952:00640000
#05956:0000000000240000
#06352:0000006300000000
#06356:00000000000000000023000000000000
#0735a:0000006400000000
#03352:6400006400000000
#03355:00000024000000000000000000000000
#02452:6363
#02455:00230013
#0245b:5353
#02458:00230013
#01852:6300005300000000
#01855:00000023000000000000000000000000
#02652:63
#02655:0000005300000000
#01352:0000006300000000
#01358:0000006300000000
#06052:34
#07752:00000014000000000000000000000000
#0775a:14
#0005a:00000000000000000000000000000044
#00158:00000053
#0015b:00000000000000000000000000000013
#00255:00000063
#00252:00000000000000000000000000000013
#00652:00000063000000000000000000000000
#00655:6300001300000000
#00755:0000005300000000
#00852:13
#0085b:00630000
#00452:00530000
#00955:00000053000000000000000000000000
#00952:5300005300000000
#00956:00000000000000000023000000000000
#0105b:00000053000000000000000000000000
#01058:5300001300000000
#01158:0000000000000000000000006300000000000000000000000023000000000000
#0115a:0000000000000000000000000000000000230000000000000000000000000000
#01159:0000000000000000000000000000000000000000005300000000000000000000
#0125b:13
#01252:00530000
#0145b:0000005300000000
#01455:0000005300000000
#02558:0000006300000000
#0255b:53
#03456:14
#0355a:5400005400000000
#03557:00000024000000000000000000000000
#03656:14
#04258:0022
#0425b:52
#04356:0022
#04353:62
#0515a:54
#05152:64
#05454:0014000000000000
#05358:0014000000000000
#05558:00000015000000000000000000000000
#05552:0000001600000000
#05554:14
#05656:0064
#0565a:00000014
#06155:53
#06158:0063
#0615b:00000000000000000000002300000000
#06258:0014000000000000
#06255:0053
#06252:00000000000000000000002300000000
#0645a:0064
#06456:00000014
#0675b:53
#06757:0000002300000000
#06956:0024
#0695a:54
#07057:00000024
#0705a:0054
#07055:00240000
#07052:64
#07156:0000000000000026
#07152:66
#07452:54
#07456:0000005400000000
#0765a:64
#07656:00000064
#01652:13
#01658:13
#01957:0023
#0195b:53
#0205b:43
#0215b:53
#02152:0063
#02158:00000013000000000000000000000000
#02155:00000000000000000000001300000000
#02352:53
#0235b:0063
#02358:63
#02355:0053
#0575b:0053
#05752:63
#0585b:0000001300000000
#02858:0014
#02855:0000000000000063
#02952:0000005300000000
#02958:0000000000000053
#03158:0000005300000000
#03152:0000005300000000
#0325b:0063
#03255:0063
#03252:00000013
#03258:00000013
#0305b:0000006300000000
#02758:0000005300000000
#0275b:63
#0013b0:00130000
#001390:00000000003300000000000000000000
#001380:0000003323000000
#001380:00000013
#0013b0:00000000000000000000000000330023
#002350:00000013
#002320:00000000000000000000000000330023
#003350:0013
#003320:00000000000000000000002300000000
#0033b1:0013
#003381:00000000000000000000002300000000
#004321:00130000
#004351:0023
#0053b1:1300003300002300
#005381:00000033000000000000000000000000
#005371:00000000000000000053000000000000
#006351:1300002300000000
#006321:00000033000000000000000000000000
#007351:13000023000000000000000000000000
#007380:00000013000023000000000000000000
#007351:0000001300000000
#008321:23
#0083b1:00130000
#008381:0023
#009321:1300003300002300
#009351:00000033000000000000000000000000
#009361:00000000000000000053000000000000
#010381:1300002300000000
#0103b1:00000033000000000000000000000000
#010351:00000013
#011351:23
#011380:13000023000000000000000000000000
#011351:00000013000023000000000000000000
#011380:0000000000000000000000001300000000000000000000000053000000000000
#0113a0:0000000000000000000000000000000000530000000000000000000000000000
#011390:0000000000000000000000000000000000000000005300000000000000000000
#0123b0:23
#012320:00130000
#012350:0023
#013320:0000001300000000
#013350:00000023
#013381:0000001300000000
#0133b1:00000023
#0143b1:0000001300000000
#014381:00000023
#014350:0000001300000000
#014320:00000023
#015320:0000001300000000
#015350:00000000000000000000005300000000
#016320:23
#015381:0000001300000000
#0153b1:00000000000000000000005300000000
#016381:23
#0163b1:00132300
#016360:00001323
#0163b1:00000013
#0173b1:23
#017360:13
#017320:0023
#018320:1300003300000000
#018350:00000033000000000000000023000000
#0193b0:13
#019370:0053
#0203b0:23
#0213b0:13
#021380:00003323000000000000000000000000
#021320:0013
#021350:00000000000000000000332300000000
#022380:13000023000000000000000000000000
#022321:13000023000000000000000000000000
#022351:00000000000000001300002300000000
#0223b0:00000000000000001300002300000000
#023380:13
#0233b0:00000023000000000000000000000000
#023321:13
#023351:00000023000000000000000000000000
#023351:0013
#023321:00000000000000000000002300000000
#0233b0:0013
#023380:00000000000000000000002300000000
#024320:1333
#024350:00000033530033000000330023000000
#0243b1:1333
#024381:00000033530033000000330023000000
#0253b1:13000000000000003300002300000000
#025381:00000033000033000000000000000000
#026321:13000000000000003300002300000000
#026351:00000033000033000000000000000000
#0273b1:1300000033330023
#027381:00003333000033000000000000000000
#028351:0000000000000013
#029321:33000033000033000000000000000000
#029351:00000000000000003300333300002300
#029380:0000000000000013
#0303b0:33000033000033000000000000000000
#030380:00000000000000003300002300000000
#031380:0000001300000000
#0313b0:00000023
#031321:0000001300000000
#031351:00000023
#032351:0013
#032321:00000023
#0323b0:0013
#032380:00000023
#033320:1400003400000000
#033350:00000034000000000000000000000000
#034360:24
#0353a0:1400003400000000
#035370:00000034000000000000000000000000
#036360:24
#037330:12
#037360:0032
#038330:22
#0383b1:12
#038381:0032
#0393b1:22
#039360:12
#039330:0032
#040360:22
#040381:12
#0403b1:0032
#041381:22
#041330:12
#041360:0032
#042330:22
#0423b1:12
#042381:0032
#0433b1:22
#043330:12
#043360:0032
#044330:22
#049320:14
#049360:0034
#050320:24
#0503a1:14
#050361:0034
#0513a1:34
#051381:00000023
#051320:14
#051350:00000023
#052380:00000000000000001400003400003400
#053380:0024000000000000
#053340:00000000000000001400003400003400
#054340:0024000000000000
#054380:00000000000000001400003400002400
#056360:0014
#056370:00000000000000000034000000000000
#056380:0000000000340000
#056390:00000000000000000000003400000000
#0563a0:00000024
#057320:13
#057350:00230000
#0573b0:0013
#057380:00000023
#059320:00140000
#059360:0000000000540000
#060320:24
#061350:13
#061320:00230000
#061380:0000000013000023
#0613b0:00000000000000000000003300000000
#062350:0000000013000023
#062320:00000000000000000000003300000000
#063320:0000001300002300
#063360:00000000000000000053000000000000
#0643a0:0014
#064360:00000024
#0653b0:1323
#065321:0013
#066321:23
#066380:1323
#066351:0013
#067351:23
#0673b0:13000023
#067370:0000005300000000
#0693a0:14
#069360:0054
#0703a0:24
#070321:1424
#070351:00540000
#0703a0:0014
#070370:00000054
#0713a0:24
#071321:16
#071361:0000000000000056
#072321:00000026
#0733a1:0000001400000000
#073361:00000024
#074321:14000024
#074361:0000003400000000
#0763a1:140000000000000000000000000000000000000000003434
#076361:00000034
#076371:000000000000000000000000000000000000003400000000
#076381:000000000034
#076391:0000000000000034
#0773a1:24
#0773a1:000000000000000000000000000000000000140000000000000000000000545454545454540000000000000000000000
#077391:000000000000000000000000000000000000000000000000000000000000000000000000000000000000000000000000000000000000000000000000005500550055005500550055000055005500550055005500550055005500550055005500
#077381:000000000000000000000000000000000000000000000000000000000000000000000000000000000000000000000000000000000000000000000000000000000000000000000000005600560056005600560056005600560056005600560056
#0783a1:545454545454545454545454545454545454545454545454545454545454545454545454545454545454545454545454
#078391:005500550055005500550055005500550055005500550055005500550055005500550055005500550055005500550055005500550055005500550055005500550055005500550055005500550055005500550055005500550055005500550055
#0793a1:54
#0823b1:23
#0559a0:0000000000140000
#055960:0000000000000054
#056960:24
