This file was generated by Ched 2.7.0.0.
#TITLE ""
#ARTIST ""
#DESIGNER ""
#DIFFICULTY 0
#PLAYLEVEL
#SONGID ""
#WAVE ""
#WAVEOFFSET 0
#JACKET ""
#REQUEST "ticks_per_beat 480"
#00002: 4
#BPM01: 135
#00008: 01
#TIL00: ""
#VOLUME: ""
#HISPEED 00
#MEASUREHS 00
#0081a:0014
#01212:0014
#01614:00140014
#01618:0014
#01814:14
#01818:0014
#01912:14
#01914:0014
#02012:0014
#0201a:00140014
#02212:14
#02218:00140000
#02214:0014
#0221a:00000014
#02312:14
#02318:00140000
#02314:0014
#0231a:00000014
#02118:00140000
#02114:0014
#0211a:00000014
#02112:24
#02110:41
#02912:14
#0291a:00140000
#02914:0014
#02918:00000014
#02910:41
#03012:14
#0301a:00140000
#03014:0014
#03018:00000014
#03114:0000001400000000
#03112:14
#03113:00000034000000000000000000000000
#03218:0000001434000000
#0321a:14
#03219:00000034000000000000000000000000
#03314:14
#03312:0000001400000000
#03418:0014
#03414:00000014
#03518:14
#0351a:0000001400000000
#03519:00000034000000000000000000000000
#03712:00003414
#03714:14
#03710:41
#0391a:00003414
#03918:14
#04318:00003414
#0431a:14
#04114:00003414
#04112:14
#04512:14001414
#04518:00140000
#0461a:14001414
#04614:00140000
#04712:14
#04718:00140000
#04714:0014
#0471a:00000014
#04812:14
#04818:00140000
#04814:0014
#04810:41
#04912:00140000
#04918:0014
#04914:00000014
#0491f:11
#0491a:24
#05012:00140000
#05018:0014
#05014:00000014
#0501a:24
#05118:0014
#0511a:24
#05214:0014
#05318:0014
#05414:0014
#05514:0014
#05512:14
#05712:14
#0571a:00140000
#05714:0014
#05718:00000014
#05710:0041
#05812:14
#0581a:00140000
#05814:0014
#05818:00000014
#05912:14
#0591a:00140000
#06012:0014
#06018:00000014
#06112:14
#0611a:0014
#06114:00000014
#0621a:14000014
#06212:0014
#06314:14
#06318:00140000
#06312:0014
#0631a:00000014
#06414:14
#06418:00140000
#06412:0014
#06612:14
#0651a:14
#0671a:14
#06718:0000001400000000
#06914:0014
#0691a:00140000
#06918:00000014
#06912:26
#07012:14
#07018:00140000
#07014:0014
#0701a:00000014
#07112:14
#07215:14
#0731a:0014
#07414:14
#07418:0014
#07514:14
#07618:14
#07714:0000001400000000
#00512:0014
#0051a:24
#0061a:14
#00614:0014
#0091a:0014
#00912:24
#00910:41
#01012:14
#01018:0014
#00718:14
#0071a:0000003400000000
#01114:14
#01112:0000003400000000
#01314:0014
#0131a:24
#01418:14
#01412:0014
#0151a:14
#01518:0000003400000000
#01718:14
#02412:24
#02418:00240000
#02414:0024
#0281a:24
#02814:00240000
#02818:0024
#03618:24
#05618:0024
#0561f:00000021
#06812:26
#06818:0026
#03812:34
#0401a:34
#04418:34
#04214:34
#0055a:14
#01952:54
#01954:0024
#02454:00000014
#02858:00000014
#03152:64
#03154:0000002400000000
#03258:0000002400000000
#0325a:54
#03454:14
#03354:64
#03352:0000006400000000
#03558:54
#0355a:0000005400000000
#03658:14
#03752:00000024
#03754:54
#0395a:00000024
#03958:64
#04358:00000024
#0435a:54
#04154:00000024
#04152:64
#04854:0014
#0515a:54
#05158:0024
#0525a:14
#05254:0054
#05352:14
#05358:0064
#0545a:14
#05454:0054
#05554:0054
#05552:54
#05652:14
#06058:14
#0595a:00540000
#06152:14
#0625a:14
#06452:0014
#06758:0000002400000000
#0675a:54
#0655a:54
#06652:64
#06852:16
#06858:0016
#06952:16
#07152:64
#07255:24
#07352:14
#07554:54
#07658:64
#07754:0000005400000000
#00758:54
#01154:64
#0155a:64
#01758:54
#02152:14
#00052:00000000000000000000000000000014
#00158:00000000000000000000000000000014
#00254:00000000000000000000000000000014
#000320:00000000000000001400000034000024
#001380:00000000000000001400000000000024
#002340:00000000000000001400000000000024
#003380:00000000000000001400003400003400
#0053a0:24
#007380:14
#0073a0:0000003400000000
#0083a0:24
#011340:14
#011320:0000003400000000
#012320:24
#0153a0:14
#015380:0000003400000000
#016380:24
#017380:14
#0173a0:0024
#019320:14
#019340:0054
#020320:24
#024340:00001424
#0253a0:14240000
#025340:00001424
#026380:14240000
#026320:00001424
#0273a0:14240000
#027340:00001424
#028380:00001424
#031320:14000024
#031330:00000034000000000000000000000000
#031340:0000003400000000
#0323a0:14000024
#032390:00000034000000000000000000000000
#032380:0000003434000000
#033340:14
#033320:0000003400000000
#034340:24
#035380:14
#035390:00000034000000000000000000000000
#0353a0:0000003400000000
#036380:24
#037340:14
#037320:00003454
#038320:34
#038340:0024
#039380:14
#0393a0:00003454
#0403a0:34
#040380:0024
#041320:14
#041340:00003454
#042340:34
#042320:0024
#0433a0:14
#043380:00003454
#044380:34
#0443a0:0024
#0513a0:14
#051380:0054
#0523a0:24
#052340:0014
#053320:24
#053380:0014
#0543a0:24
#054340:0014
#055320:34
#055340:0034
#056320:24
#0593a0:00140000
#060380:24
#0653a0:14
#065380:0024
#066320:14
#066340:0024
#0673a0:14000024
#067380:0000005400000000
#071320:14
#072350:54
#073320:24
#075340:14
#075320:0024
#076380:14
#0763a0:0024
#077320:14
#077330:00000034000000000000000000000000
#077340:0000003400000000
#082320:23
