This file was generated by Ched 2.7.0.0.
#TITLE ""
#ARTIST ""
#DESIGNER ""
#DIFFICULTY 0
#PLAYLEVEL
#SONGID ""
#WAVE ""
#WAVEOFFSET 0
#JACKET ""
#REQUEST "ticks_per_beat 480"
#00002: 4
#BPM01: 140
#00008: 01
#TIL00: ""
#VOLUME: ""
#HISPEED 00
#MEASUREHS 00
#0021a:14
#00314:14
#00414:14
#00518:14
#00618:14
#00712:14
#00812:14
#0091a:14
#00910:41
#01014:14
#0111a:14
#01214:14
#01318:14
#01412:14
#01518:14
#01612:14
#02112:0016
#02118:26
#02110:41
#02218:16
#02212:0016
#02518:16
#02512:0016
#02618:16
#02612:0016
#02918:16
#02912:0016
#03218:14
#03314:14
#0341a:14
#03513:14
#03519:14
#0361a:14
#03610:41
#03712:14
#0381a:14
#03914:14
#04018:14
#04114:14
#04218:14
#0611a:14
#06115:0014
#06219:14
#06214:0014
#06318:14
#06313:0014
#06417:14
#06412:0014
#0651a:14
#06512:0014
#04718:0016
#04712:26
#04710:41
#04812:16
#04818:0016
#05112:16
#05118:0016
#05212:16
#05218:0016
#05512:16
#05518:0016
#06718:0016
#06712:26
#0671f:21
#06710:00000041
#06812:16
#06818:0016
#07118:0016
#07112:26
#07212:16
#07218:0016
#0571f:11
#0011a:24
#03112:24
#06618:2424
#06614:00240000
#07512:26
#07518:0026
#07612:26
#07718:26
#07712:0026
#07818:26
#05610:41
#017380:14
#017390:0034
#0183a0:24
#019340:14
#019330:0034
#020320:24
#023380:16362600
#024320:16362600
#027380:16362600
#028320:16362600
#030380:16362600
#043340:14
#043330:0034
#044320:24
#045380:14
#045390:0034
#0463a0:24
#049320:16362600
#050380:16362600
#053320:16362600
#054380:16362600
#056320:16362600
#057380:14
#0583a0:24
#059340:14
#060320:24
#069320:16362600
#070380:16362600
#073320:16362600
#074380:16362600
#076320:16362600
#078380:16362600
