This file was generated by Ched 2.7.0.0.
#TITLE ""
#ARTIST ""
#DESIGNER ""
#DIFFICULTY 0
#PLAYLEVEL
#SONGID ""
#WAVE ""
#WAVEOFFSET 0
#JACKET ""
#REQUEST "ticks_per_beat 480"
#00002: 4
#BPM01: 140
#00008: 01
#TIL00: ""
#VOLUME: ""
#HISPEED 00
#MEASUREHS 00
#0021b:13000000130000000000001300000000
#00212:1300000013000013
#00214:0000001300000000
#00217:0013
#00216:00000000130000000000001300000000
#01015:00001300000013000000000000000013
#01012:00000000130000000000001300000000
#01018:00130013001300000000000000001300
#0101b:00000000000000130000001300000000
#0101b:00000000000000130000000000000000
#0111b:13000000001300130000000000130000
#01118:00001300000000000000001300000000
#01115:0000130000131313
#01112:00130000000000130000000000000000
#01218:13001300000000130000000000330000
#01215:00130000130000000033333300000000
#0121b:00000000001300000000000013000000
#01212:0000001313000013
#01717:0000000000130000
#01712:23001300000000000000001300000000
#01719:00000013
#01716:0013
#01714:00000000000000000000000000130000
#0171b:2300000000000013
#01818:0013000000000000
#01815:00000013000000000000000000000000
#01816:0000000000130000
#0181b:23000000000000000000001300000000
#01814:00000013
#01817:0013
#01819:00000000000000000000000000130000
#01812:2300000000000013
#02115:00001300000013000000000000130000
#02118:00000013001300000000000000001300
#02112:23000000130000000000130000000013
#0211b:23000000000000130000000013000000
#02110:41
#0221b:0013000000001313
#02215:00000000000013000000000000130000
#02212:00000000130000000013001300000000
#02218:00000000001300130000130000000000
#02318:13000013000000130000130000000000
#02312:13001300000013000013000000000000
#02315:00000000130000000000001300000000
#0231b:00000000001300000000000013000000
#02912:13000000000000130000230013000000
#0291b:00002300130000001300000000000013
#02915:00000000001300000000000000001300
#02918:00000000000013000000000000130000
#02916:0023000000000000
#02917:0000000000230000
#00012:13000000130000000000001300000000
#00014:0000001300000000
#00016:00000000000000001300002400001300
#0001b:13
#00017:00130000
#00019:0000001300000000
#0001a:0000000024000024
#0011b:00130000
#00116:0000130000130000
#00117:13000000000000130000000000000000
#00112:24000000000000130000000000000000
#00912:13000000001300000013000000000000
#00918:00001300130000001300001300001300
#00915:00000013000000130000000000130013
#0091b:2300001300000000
#00910:41
#01512:13000000001300000013000013000000
#01518:00130000000000000000130000000000
#01515:0013000000000000
#0151b:00000000130000130000000000001300
#01517:00000013
#01516:0000000000000013
#01412:00001300000000130000001300000000
#01412:00000000000000130000000000000000
#01418:00000000000013000000000000130000
#01415:00000000001300000000000000001300
#0141b:00000000130000000000000000000013
#01915:00000000000000000013000000000013
#01918:0000000000130013
#01912:23000000000013000000001300130000
#0191b:2313000013001300
#02418:13000013001300000000000000000000
#02415:0013001300000000
#02412:13131300
#0241b:00000000000000130000130000000000
#02419:00000013
#02417:0000000000000013
#02416:00000000000000000000001300000000
#02414:00000000000000000000000000130000
#0281b:13000000000000130000000000000013
#02815:00130000000013001300000000001300
#02812:00000013000000000000001300000000
#02818:00001300001300000000130000130000
#0301b:0023130023000000
#03015:00000000001300000000000000130013
#03018:0000001300001313
#03012:13000000000000130000130000000000
#03016:0023000000000000
#0321b:13000000000000000000001300000000
#03218:00130000
#03212:1313
#03215:0000001300000000
#03217:0013
#03216:00000000000000000000001300000000
#03112:0000130000130000
#03117:00130000
#0311b:00000000000000130000000000000000
#03116:00000000000000130000000000000000
#0311a:24
#0371b:13000013
#03715:00130000000000130000000000130000
#03718:00001300001300000013000000001300
#03712:0000130000130000
#03812:13131300
#03815:00001300000013000033133300001300
#0381b:13000000001300000000000013000000
#03818:00000013000000130000130000330000
#03912:13000000130000000013000000000000
#03918:00130000001300000000000000130013
#03915:00001300000013000000001300001300
#0391b:00000013000000130000001300000000
#0361b:00000000000000000000001300000000
#03615:00000000000000000013000000130013
#03618:0000000013000013
#03614:00130000
#03619:00130000
#03612:24
#0361a:24
#03610:41
#0411b:13000000000000130000001300000000
#04115:00130000000000000000130013000000
#04118:00001300001300000013000000130013
#04112:00000000130000130000000000001300
#04012:13000000130000130000000000130000
#04018:00000013000013000000000000001300
#04015:00001300000000000000001300000013
#0401b:00130000000000000000001300000000
#04212:00331333000000001300000000000000
#04215:13000000000000000033133300001300
#0421b:00000000003313330000000013000000
#04218:00000000130000000000000000330000
#04318:00000000000000130000000000130013
#04315:0000001300001313
#04315:0000000000000013
#04317:00130000
#0431b:2313000000000000
#04316:0013000000000000
#04312:23
#04415:00001300001300130000000000130013
#04418:0000131300001313
#04418:0000000000000013
#0441b:2313000000000000
#04412:23
#04515:0013001313000013
#04518:00000013001300000000130013000000
#04512:23000000130000000033133300000000
#0451b:23000000000000130000000000331333
#05712:24001300000000000000000000130013
#05717:0000000000001313
#05716:00000000001300130000000000000000
#0571b:0013131300000000
#0571f:11
#06612:2400000024130000
#0661b:0000000000130000
#06618:0000000000001313
#06615:00000000240000000000000000130013
#06617:2424
#0661a:00240000
#06715:00001300000013000000000000130000
#06718:26000013001300000000000000001300
#06712:00000000130000000000130000000013
#0671b:00000000000000130000000013000000
#06717:0000000000000000000000000000000000130000000000000000000000000000
#0671f:21
#06710:00000041
#0681b:0013000000001313
#06815:00000000000013000000000000130000
#06812:00000000130000000013001300000000
#06818:00000000001300130000130000000000
#06816:0013000000000000000000000000000000000000000000000000000000000000
#06912:13001300000000000000001300000000
#06917:00000013000000000000000000000000
#06914:00130000
#0691b:13000000000000130000000013000000
#06915:00000000000000000013000000000000
#06918:0000000000130000
#06919:00000000001300000000000000000000
#06916:0000001300000000
#0701b:13000000001300000000000000000000
#07012:0013000013000000
#07018:00000013000000130000001300000000
#07015:1300131300000013
#07013:0000000000130000
#07014:00000013
#07019:00000000000000000000000000130000
#07017:00000000000000000013000000000000
#07618:00000000002300000000130000130013
#07615:0000002300001313
#0761b:23000000000000230000000000000000
#07612:0023230023000000
#0781a:0014
#07816:00000000000000000000001300000000
#07812:23000000000000230000000000001200
#0781b:0023230000000000
#07815:00000000002300000000000000000000
#07818:0000002300000000
#0591b:23001300000000000000000000130013
#05912:0013131300000000
#05916:0000000000001313
#05917:00000000001300130000000000000000
#0651b:1313131300000000
#06512:2500000013131313
#06513:0025000000000000
#06514:00250000
#06515:0000002500000000
#06516:0025
#06517:0000000000250000
#06518:00000025
#06519:0000000000000025
#06012:0000131300001300
#06018:00000000000000000000000000130000
#06015:0000000000000013
#0601b:00000000000000000000000000000013
#06017:00000000001300130000000000000000
#00412:13000000130000000000001300000000
#0041b:1300000013000013
#00419:0000001300000000
#00416:0013
#00417:00000000130000000000001300000000
#00312:23130000
#00317:2300130000130000
#00316:00000000000000130000000000000000
#0031b:00000000000000130000000000000000
#0061b:13000000130000000000001300000000
#00612:1300000013000013
#00614:0000001300000000
#00617:0013
#00616:00000000130000000000001300000000
#0051b:23130000
#00516:2300130000130000
#00517:00000000000000130000000000000000
#00512:00000000000000130000000000000000
#00812:13000000130000000000001300000000
#0081b:1300000013000013
#00819:0000001300000000
#00816:0013
#00817:00000000130000000000001300000000
#00712:23130000
#00717:2300130000130000
#00716:00000000000000130000000000000000
#0071b:00000000000000130000000000000000
#01315:00001300000013000000001300001300
#01318:00130000001300000013000000130013
#01312:13131300
#0131b:00000013000000130000000000000000
#0161b:0013001313000013
#01612:00000013000000130000000013000000
#01618:13000000130000000033333300000000
#01615:00130000001300000000000000330000
#0201b:13002300000000130000000000002300
#02015:00130000000000000000000013000000
#02012:00000000130000000013000000002300
#02016:00000000000000130000000000000000
#02017:00000000000000000013000000000000
#02018:00000000002300000000001300000000
#02518:00001300000013000000000000130000
#02515:00000013001300000000000000001300
#0251b:23000000130000000000130000000013
#02512:23000000000000130000000013000000
#02612:0013000000001313
#02618:00000000000013000000000000130000
#0261b:00000000130000000013001300000000
#02615:00000000001300130000130000000000
#02715:13000013000000130000130000000000
#0271b:13001300000013000013000000000000
#02718:00000000130000000000001300000000
#02712:00000000001300000000000013000000
#03412:13000000000000000000001300000000
#03415:00130000
#0341b:1313
#03418:0000001300000000
#03416:0013
#03417:00000000000000000000001300000000
#0331b:0000130000130000
#03316:00130000
#03312:00000000000000130000000000000000
#03317:00000000000000130000000000000000
#04612:13002300000000130000000000002300
#04618:00130000000000000000000013000000
#0461b:00000000130000000013000000002300
#04617:00000000000000130000000000000000
#04616:00000000000000000013000000000000
#04615:00000000002300000000001300000000
#04718:00001300000013000000000000130000
#04715:00000013001300000000000000001300
#0471b:23000000130000000000130000000013
#04712:23000000000000130000000013000000
#04710:41
#04812:0013000000001313
#04818:00000000000013000000000000130000
#0481b:00000000130000000013001300000000
#04815:00000000001300130000130000000000
#04915:13000013000000130000130000000000
#0491b:13001300000013000013000000000000
#04918:00000000130000000000001300000000
#04912:00000000001300000000000013000000
#0551b:13000000000000130000230013000000
#05512:00002300130000001300000000000013
#05518:00000000001300000000000000001300
#05515:00000000000013000000000000130000
#05517:0023000000000000
#05516:0000000000230000
#05015:13000013001300000000000000000000
#05018:0013001300000000
#0501b:13131300
#05012:00000000000000130000130000000000
#05014:00000013
#05016:0000000000000013
#05017:00000000000000000000001300000000
#05019:00000000000000000000000000130000
#05412:13000000000000130000000000000013
#05418:00130000000013001300000000001300
#0541b:00000013000000000000001300000000
#05415:00001300001300000000130000130000
#05612:0023130023000000
#05618:00000000001300000000000000130013
#05615:0000001300001313
#0561b:13000000000000130000130000000000
#05617:0023000000000000
#05610:41
#05115:00001300000013000000000000130000
#05118:00000013001300000000000000001300
#05112:23000000130000000000130000000013
#0511b:23000000000000130000000013000000
#0521b:0013000000001313
#05215:00000000000013000000000000130000
#05212:00000000130000000013001300000000
#05218:00000000001300130000130000000000
#05318:13000013000000130000130000000000
#05312:13001300000013000013000000000000
#05315:00000000130000000000001300000000
#0531b:00000000001300000000000013000000
#05816:00000000001300130000000000000000
#0581b:0000131300000000
#05817:00000013
#05812:00000000000000000000000000130000
#05819:0000000000000013
#05814:00000000000000000000000000000013
#06113:12
#06114:0012000000000000
#06115:00120000
#06116:0000001200000000
#06117:0012
#06118:0000000000120000
#06119:00000012
#0611a:0000000000000012
#06213:13
#06214:0013000000000000
#06215:00130000
#06216:0000001300000000
#06217:0013
#06218:0000000000130000
#06219:00000013
#0621a:0000000000000013
#06312:14
#06313:0014000000000000
#06314:00140000
#06315:0000001400000000
#06316:0014
#06317:0000000000140000
#06318:00000014
#06319:0000000000000014
#06412:15
#06413:0015000000000000
#06414:00150000
#06415:0000001500000000
#06416:0015
#06417:0000000000150000
#06418:00000015
#06419:0000000000000015
#07118:00001300000013000000000000130000
#07115:00000013001300000000000000001300
#0711b:23000000130000000000130000000013
#07112:26000000000000130000000013000000
#07116:0000000000000000000000000000000000130000000000000000000000000000
#07212:0013000000001313
#07218:00000000000013000000000000130000
#0721b:00000000130000000013001300000000
#07215:00000000001300130000130000000000
#07217:0013000000000000000000000000000000000000000000000000000000000000
#0731b:00001300000000000000001300000000
#07316:00000013000000000000000000000000
#07319:00130000
#07312:00000000000000130000000013000000
#07318:13000000000000000013000000000000
#07315:00130000000000000000130000000000
#07314:00000000001300000000000000000000
#07317:0000001300000000
#0741b:0013000013000000
#07415:00000013000000130000001300000000
#07418:1300131300000013
#07412:00130000001300000000000000000000
#0741a:0000000000130000
#07419:00000013
#07414:00000000000000000000000000130000
#07413:00000000000000000000000000000013
#07416:00000000000000000013000000000000
#07712:23000000000000230000230023000000
#0771b:00002300230000002300000000000023
#07715:00000000002300000000000000002300
#07718:00000000000023000000000000230000
#0751b:23000000000000230000230023000000
#07512:00002300230000002300000000000023
#07518:00000000002300000000000000002300
#07515:00000000000023000000000000230000
#00257:0000000053000013
#00252:0000000000000013
#0025b:00000000000000000000005300000000
#02358:00000000000000630000000000000000
#0235b:00000013
#02952:5300000000130000
#0295b:0013000053000000
#02956:0013000000000000
#02957:0000000000130000
#00952:63
#00958:00000000000000000000005300000000
#00955:00000000000000000000000000000063
#01052:00000000000000000000005300000000
#0105b:00000000000000130000000000000000
#01158:0053000000000000
#01155:0000000000000063
#0115b:00000000000000630000000000000000
#01258:0053000000000000
#01252:0000000053000013
#0125b:00000063
#01257:0000000000000013
#01452:00000000000000130000005300000000
#01555:0063000000000000
#0155b:00000000000000630000000000001300
#01552:00000013
#01756:0053
#01857:0063
#02152:13000000000000000000130000000063
#0215b:13000000000000630000000000000000
#02157:0000000000130000
#0225b:0013000000000013
#02258:00000000000000530000000000000000
#02256:0013000000000000
#02458:53
#02457:0000000000000013
#03257:0000000053000013
#0325b:00000000000000000000005300000000
#03252:0000000053000013
#03256:00000000000000000000005300000000
#0315b:00000000000000530000000000000000
#03152:0000000000130000
#0315a:44
#03157:0000000000130000
#0365b:00000000000000000000006300000000
#03652:14
#0365a:14
#03758:0053000000000000
#03755:00000000000000630000000000000000
#03752:0000000000530000
#03852:0053
#03855:0000000000230000
#0385b:00000063
#03858:0000000000000013
#03955:00000000000000000000006300000000
#0395b:00000000000000530000000000000000
#04158:0053000000000000
#04152:00000000000000530000000000000000
#04252:0023000053000000
#04255:6300000000230000
#0425b:0000002300006300
#04258:00530000
#04052:00530000
#0405b:00000000000000000000006300000000
#04357:00630000
#04356:0063000000000000
#04352:13
#0435b:13
#04455:0053000000000000
#04555:0063
#04552:0000000000230000
#04558:00000053
#0455b:0000000000000023
#05756:00000000000000630000000000000000
#05752:34000000000000000000130000000063
#0685b:0000000000000013
#06858:00000000000000530000000000000000
#06856:0023000000000000000000000000000000000000000000000000000000000000
#06852:0033000000000000
#0695b:00000000000000530000000013000000
#0675b:00000000000000630000430000000000
#06757:0000000000000000000000000000000000230000000000000000000000000000
#06758:16
#06752:00000000000000000000000000000053
#0705b:63
#07052:0013
#07053:0000000000130000
#07054:00000013
#07055:0000000000000013
#00157:00000000000000630000000000000000
#00156:0000000000130000
#00152:34
#0015b:0000000000130000
#00056:00000000000000000000004400000000
#0005a:0000000044000044
#06657:1414
#06652:1414
#06655:00140000
#0665a:00140000
#05856:00001300000000630000000000000000
#05852:0000000000130000
#00456:0000000063000013
#0045b:0000000000000013
#00452:00000000000000000000006300000000
#00356:00000000000000530000000000000000
#00357:0000000000130000
#00352:0000000000130000
#00657:0000000053000013
#00652:0000000000000013
#0065b:00000000000000000000005300000000
#00557:00000000000000630000000000000000
#00556:0000000000130000
#0055b:0000000000130000
#00856:0000000063000013
#0085b:0000000000000013
#00852:00000000000000000000006300000000
#00756:00000000000000530000000000000000
#00757:0000000000130000
#00752:0000000000130000
#01355:00000000000000000000006300000000
#01358:00000000000000000000000000000053
#0165b:0000000063000013
#01652:00000053
#01656:0000000000000013
#01952:0000005300000000
#02652:0013000000000013
#02655:00000000000000630000000000000000
#02657:0013000000000000
#02755:00000000000000530000000000000000
#02752:00000013
#0255b:13000000000000000000130000000053
#02552:13000000000000530000000000000000
#02556:0000000000130000
#02855:0063
#02852:00000053000000000000005300000000
#03052:63
#03056:0013000000000000
#0305b:0013000013000000
#03456:0000000063000013
#03452:00000000000000000000006300000000
#0345b:0000000063000013
#03457:00000000000000000000006300000000
#03352:00000000000000630000000000000000
#0335b:0000000000130000
#03356:0000000000130000
#04852:0013000000000013
#04855:00000000000000630000000000000000
#04857:0013000000000000
#04955:00000000000000530000000000000000
#04952:00000013
#0555b:6300000000130000
#05552:0013000063000000
#05557:0013000000000000
#05556:0000000000130000
#0475b:13000000000000000000130000000053
#04752:13000000000000530000000000000000
#04756:0000000000130000
#05055:63
#05056:0000000000000013
#0525b:0013000000000013
#05258:00000000000000530000000000000000
#05256:0013000000000000
#05358:00000000000000630000000000000000
#0535b:00000013
#05152:13000000000000000000130000000063
#0515b:13000000000000630000000000000000
#05157:0000000000130000
#0545b:00000063000000000000006300000000
#05458:0053
#0565b:53
#05657:0013000000000000
#05652:0013000013000000
#05957:00000000000000530000000000000000
#0595b:00000000000000000000130000000053
#06057:00001300000000530000000000000000
#0605b:0000000000130000
#07252:0000000000000013
#07255:00000000000000630000000000000000
#07257:0023000000000000000000000000000000000000000000000000000000000000
#0725b:0043000000000000
#07152:16000000000000530000330000000000
#07156:0000000000000000000000000000000000230000000000000000000000000000
#0715b:13000000000000000000000000000063
#07352:00000000000000630000000013000000
#0745b:0013
#0745a:0000000000130000
#07459:00000013
#07458:0000000000000013
#07756:0013000000000000
#0775b:0013000053000000
#07752:5300000000130000
#07757:0000000000130000
#07852:6300000000000012
#0785b:0013000000000000
#07856:00001300000000000000001300000000
#0785a:0014
#0755b:6300000000130000
#07552:0013000063000000
#07557:0013000000000000
#07556:0000000000130000
#0765b:53
#07652:0013000013000000
#07657:0013000000000000
#001370:00000000000000130000000000000000
#0013b0:0000000000230000
#002370:0000000013000023
#0023b0:00000000000000000000003300000000
#003360:00000000000000130000000000000000
#003320:0000000000230000
#004360:0000000013000023
#004320:00000000000000000000003300000000
#005370:00000000000000130000000000000000
#0053b0:0000000000230000
#006370:0000000013000023
#0063b0:00000000000000000000003300000000
#007360:00000000000000130000000000000000
#007320:0000000000230000
#008360:0000000013000023
#008320:00000000000000000000003300000000
#009320:13
#009350:0023000000000000
#009380:00000000000000000000001300000000
#0093b0:00000000000000000000000000230000
#009350:00000000000000000000000000000013
#010320:00230000000000000000000000000000
#010320:00000000000000000000001300000000
#010350:0000000000000023
#011380:0013000000000000
#0113b0:00230000
#0113b0:00000000000000130000000000000000
#011380:0000000000230000
#011350:0000000000000013
#012320:23
#012380:0013000000000000
#0123b0:00230000
#012320:0013
#012350:00000000000000000033333300000000
#012360:00000023
#0123b1:00000013
#012381:00000000000000000000000000330000
#012371:0000000000000023
#013351:00000000000000000000001300000000
#013321:00000000000000000000000000230000
#013381:00000000000000000000000000000013
#0143b1:0023000000000000
#014321:00000000000000000000001300000000
#014351:00000000000000000000000000230000
#015351:0013000000000000
#015321:00230000
#0153b1:00000000000000130000000000000000
#015381:00000000000000000023000000000000
#0163b1:0013
#016381:00000000000000000033333300000000
#016371:00000023
#016320:00000013
#016350:00000000000000000000000000330000
#016360:0000000000000023
#017370:0013230000000000
#017321:0000132300000000
#0173b0:0000001323000000
#017361:0013
#017321:0000000000230000
#0183b1:0000132300000000
#018320:0000001323000000
#018371:0013
#0183b1:0000000000230000
#019361:0013230000000000
#0193b0:0000132300000000
#019321:0000001300000000
#019351:0023
#0213b1:00000000000000130000000000000000
#021371:0000000000230000
#021321:00000000000000000000000000000013
#022361:0023000000000000
#022381:00000000000000130000000000000000
#0223b1:00000000000000000023000000000000
#023381:00000000000000130000000000000000
#0233b1:00000000000000000023000000000000
#024381:13
#0243b1:0023000000000000
#025321:00000000000000130000000000000000
#025361:0000000000230000
#0253b1:00000000000000000000000000000013
#026371:0023000000000000
#026351:00000000000000130000000000000000
#026321:00000000000000000023000000000000
#027351:00000000000000130000000000000000
#027321:00000000000000000023000000000000
#028321:00000013000000000000000000000000
#028351:00000000002300000000000000000000
#028351:0013
#028321:0000000000230000
#028321:00000000000000000000001300000000
#028351:00000000000000000000000000230000
#029321:13
#029361:0023000000000000
#0293b1:0013
#029371:0000000000230000
#030321:13
#030361:0023000000000000
#0313b1:00000000000000130000000000000000
#031371:0000000000230000
#032371:0000000013000023
#0323b1:00000000000000000000003300000000
#032320:0000000013000023
#032360:00000000000000000000003300000000
#033320:00000000000000130000000000000000
#033360:0000000000230000
#034360:0000000013000023
#034320:00000000000000000000003300000000
#0343b1:0000000013000023
#034371:00000000000000000000003300000000
#0363b1:00000000000000000000001300000000
#036381:00000000000000000000000000230000
#037381:0013000000000000
#0373b1:00230000
#037351:00000000000000130000000000000000
#037321:00000000000000000023000000000000
#037321:0000000000130000
#037351:00000023
#038321:00001323
#038351:00000000000000000033333300000000
#0383b0:00000013
#038380:00000000000000000000000000332300
#0393b0:00000000000000130000000000000000
#039380:00000000000000000023000000000000
#039350:00000000000000000000001300000000
#039320:00000000000000000000000000230000
#040320:00130000
#040350:0000002300000000
#0403b0:00000000000000000000001300000000
#040380:00000000000000000000000000230000
#041380:0013000000000000
#0413b0:00230000
#041320:00000000000000130000000000000000
#041350:00000000000000000023000000000000
#042350:13230000
#042320:00333333000000000000000000000000
#042381:00132300
#0423b1:00000000003333330000000000000000
#042320:00001323
#042350:00000000000000000033333300000000
#0423b1:00000013
#042381:00000000000000000000000000332300
#043361:0013000000000000
#043321:00230000
#043370:00130000
#0433b0:0000002300000000
#043320:0000000013230000
#0433b1:0000000000132300
#044351:0013000000000000
#044321:00230000
#0443b1:0000000013230000
#044320:0000000000132300
#045350:00001323
#045320:00000000000000000033333300000000
#045381:00000013
#0453b1:00000000000000000000000000333333
#046381:23
#047321:00000000000000130000000000000000
#047361:0000000000230000
#0473b1:00000000000000000000000000000013
#048371:0023000000000000
#048351:00000000000000130000000000000000
#048321:00000000000000000023000000000000
#049351:00000000000000130000000000000000
#049321:00000000000000000023000000000000
#050351:13
#050321:0023000000000000
#0513b1:00000000000000130000000000000000
#051371:0000000000230000
#051321:00000000000000000000000000000013
#052361:0023000000000000
#052381:00000000000000130000000000000000
#0523b1:00000000000000000023000000000000
#053381:00000000000000130000000000000000
#0533b1:00000000000000000023000000000000
#0543b1:00000013000000000000000000000000
#054381:00000000002300000000000000000000
#054381:0013
#0543b1:0000000000230000
#0543b1:00000000000000000000001300000000
#054381:00000000000000000000000000230000
#0553b1:13
#055371:0023000000000000
#055321:0013
#055361:0000000000230000
#0563b1:13
#056371:0023000000000000
#057361:00000000000000130000000000000000
#057321:0000000000230000
#057321:00000000000000000000000000000013
#058361:0023000000000000
#058361:00000000000000130000000000000000
#058321:0000000000230000
#059371:00000000000000130000000000000000
#0593b1:0000000000230000
#0593b1:00000000000000000000000000000013
#060371:0023000000000000
#060371:00000000000000130000000000000000
#0603b1:0000000000230000
#0673b1:00000000000000130000230000000000
#067371:0000000000000000000000000000000000530000000000000000000000000000
#067321:00000000000000000000000000000013
#068361:0053000000000000000000000000000000000000000000000000000000000000
#068321:0023000000000000
#068381:00000000000000130000000000000000
#0683b1:00000000000000000023000000000000
#0693b1:00000000000000130000000000000000
#069381:00000000000000000023000000000000
#0703b1:13
#070381:0023000000000000
#071321:00000000000000130000230000000000
#071361:0000000000000000000000000000000000530000000000000000000000000000
#0713b1:00000000000000000000000000000013
#072371:0053000000000000000000000000000000000000000000000000000000000000
#0723b1:0023000000000000
#072351:00000000000000130000000000000000
#072321:00000000000000000023000000000000
#073321:00000000000000130000000000000000
#073351:00000000000000000023000000000000
#0753b1:13
#075371:0023000000000000
#075321:0013
#075361:0000000000230000
#0763b1:13
#076371:0023000000000000
#077321:13
#077361:0023000000000000
#0773b1:0013
#077371:0000000000230000
#078321:13
#078361:0023000000000000
