This file was generated by Ched 2.7.0.0.
#TITLE ""
#ARTIST ""
#DESIGNER ""
#DIFFICULTY 0
#PLAYLEVEL
#SONGID ""
#WAVE ""
#WAVEOFFSET 0
#JACKET ""
#REQUEST "ticks_per_beat 480"
#00002: 4
#BPM01: 140
#00008: 01
#TIL00: ""
#VOLUME: ""
#HISPEED 00
#MEASUREHS 00
#0021a:14
#00215:00131300
#00212:14
#00218:0000001300000000
#00213:00000000000000000000003300000000
#01112:1313000000000000
#01118:00130000000000000000130000000000
#0111b:00000000130000000000003333000000
#01115:00000000001300000000000000000000
#03012:14141400
#0301a:14141400
#03018:0000000000001313
#03015:00000000000000000000000000130013
#06514:14
#06512:0034343434343434
#00918:00001300000013000000001300000000
#00912:23131300
#0091a:00000000000000000000000000330000
#0091b:0000000000000033
#00910:41
#01012:00130000
#01015:0000001300000000
#01018:00000000000000130000000000000000
#0101b:00000000001300000000000000000000
#01212:13
#01218:00001300000000000013000013001300
#01215:00000000130000001300130000130000
#0121b:0000001300000000
#0161b:1300000000000013
#01615:00001300000000000013000000000000
#01618:0000130013130000
#01612:0000001300001300
#01712:0013000000130000
#01715:00000000130000000000000000130000
#01718:0000001300001313
#0171b:0013
#01812:0013130013000000
#01818:00000013000000000000000000130000
#0181b:0000001300130000
#01815:0000000000001313
#0191b:0013000013130000
#01918:00000000130000000000000000130000
#01915:00000000000013000013000000000000
#01912:0000000000001313
#0201b:13
#02015:0013131300000000
#02018:00000013001300000000000000000000
#02112:2413000000000000
#02118:0000130000000013
#02115:0000001300001300
#0211a:24
#02110:41
#02218:00130000
#02215:00000000001300000000000000000000
#0221b:0000001300000000
#02212:00000000000000000013333333330000
#0231b:13000000000000130000000000000000
#02315:0013131300000000
#02318:00000013001300000033333300000000
#02412:1313
#0241b:00001300001300000000000000000000
#02415:00000013000013000000333333330000
#02418:00000000000000130000000000000000
#0281b:1313
#02818:00001300001300000000333333330000
#02812:00000013000000000000000000000000
#02815:00130000000013000000000000000000
#02915:1300001300001300
#02918:0000130013000013
#03512:14
#0351a:14
#0371b:1313000000000000
#03715:00130000000000000013000000000000
#03712:0000130000333300
#03718:00000000001300000000000000000000
#0381b:13
#03815:00001300000000000013000013001300
#03818:00000000130000001300130000130000
#03812:0000001300000000
#0411b:1313000000000000
#04115:00130000000000130000000000130000
#04118:00000000001300000000000013001300
#04112:00000000130000000033000000000000
#0391b:1313
#03915:00001300000000000000001300000000
#03918:00130000
#03912:0000001300000000
#03913:00000000000000000000000000330000
#0401b:00130000
#04015:0013001300000000
#04018:13000000000000130000000000000000
#04212:13
#04218:00001300000000000013000013001300
#04215:00000000130000001300130000130000
#0421b:0000001300000000
#04312:0013000000130000
#04315:00000000130000000000000000130000
#04318:0000001300001313
#0431b:0013
#04412:0013000013000000
#04418:00000000130013000000000000130000
#04415:00000000001300000000000013001300
#0441b:0000000000130000
#0451b:00001300130000000000000000130000
#04515:00000013000013000000000013001300
#04518:0000000013130000
#04512:00000000000000000013000000000000
#0461b:13
#04615:0013131300000000
#04618:00000013001300000000000000000000
#05712:14
#0571a:14
#0571f:11
#05815:0000000000001313
#05818:00000000000000000000000000130000
#06018:0000000000001313
#06015:00000000000000000000000000130000
#06112:13
#06118:0013000000000000
#06113:00130000
#06119:0000001300000000
#06114:0013
#0611a:0000000000130000
#06115:00000013
#0611b:0000000000000013
#06212:13
#06218:0013000000000000
#06213:00130000
#06219:0000001300000000
#06214:0013
#0621a:0000000000130000
#06215:00000013
#0621b:0000000000000013
#07615:00000000000000000000000000130000
#07618:0000000000001313
#07612:24242400
#0761a:24242400
#00012:13130000
#00012:13
#00018:00000000000013000000002300000000
#00015:0000000023000023
#00412:14
#00418:00131300
#0041a:14000000000000000000003300000000
#00415:0000001300000000
#0061a:14
#00615:00131300
#00612:14
#00618:0000001300000000
#00613:00000000000000000000003300000000
#00812:14
#00818:00131300
#0081a:14000000000000000000003300000000
#00815:0000001300000000
#0151b:1313000000000000
#01515:00130000000000000000130000000000
#01512:00130000
#01518:00000000001300000000000000000000
#0131b:13131300
#01315:00001300000013000000001300000000
#01313:00000000000000000000000000330000
#01312:0000000000000033
#0141b:00130000
#01418:0000001300000000
#01415:00000000000000130000000000000000
#01412:00000000001300000000000000000000
#0251b:0013000000000000
#02515:0000130000000013
#02518:0000001300001300
#02512:24
#0251a:24
#02615:00130000
#02618:00000000001300000000000000000000
#02612:0000001300000000
#0261b:00000000000000000013333333330000
#02712:13000000000000130000000000000000
#02718:0013131300000000
#02715:00000013001300000033333300000000
#03212:14
#03218:00131300
#0321a:14000000000000000000003300000000
#03215:0000001300000000
#0341a:14
#03415:00131300
#03412:14
#03418:0000001300000000
#03413:00000000000000000000003300000000
#03614:00140000
#03616:0014
#03618:00000014
#03612:24
#0361a:24
#03610:41
#0471b:0013000000000000
#04715:0000130000000013
#04718:0000001300001300
#04712:24
#0471a:24
#04710:41
#04815:00130000
#04818:00000000001300000000000000000000
#04812:0000001300000000
#0481b:00000000000000000013333333330000
#04912:13000000000000130000000000000000
#04918:0013131300000000
#04915:00000013001300000033333300000000
#0501b:1313
#05012:00001300001300000000000000000000
#05018:00000013000013000000333333330000
#05015:00000000000000130000000000000000
#05412:1313
#05415:00001300001300000000333333330000
#0541b:00000013000000000000000000000000
#05418:00130000000013000000000000000000
#05112:2413000000000000
#05118:0000130000000013
#05115:0000001300001300
#0511a:24
#05218:00130000
#05215:00000000001300000000000000000000
#0521b:0000001300000000
#05212:00000000000000000013333333330000
#0531b:13000000000000130000000000000000
#05315:0013131300000000
#05318:00000013001300000033333300000000
#0561a:14142400
#05612:14142400
#05610:41
#05518:1300001300001300
#05515:0000130013000013
#06712:2413000000000000
#06718:0000130000000013
#06715:0000001300001300
#0671a:24
#0671f:21
#06710:00000041
#06818:00130000
#06815:00000000001300000000000000000000
#0681b:0000001300000000
#06812:00000000000000000013333333330000
#0691b:13000000000000130000000000000000
#06915:0013131300000000
#06918:00000013001300000033333300000000
#07012:1313
#0701b:00001300001300000000000000000000
#07015:00000013000013000000333333330000
#07018:00000000000000130000000000000000
#0741b:1313
#07418:00001300001300000000333333330000
#07412:00000013000000000000000000000000
#07415:00130000000013000000000000000000
#0711b:0013000000000000
#07115:0000130000000013
#07118:0000001300001300
#07112:24
#0711a:24
#07215:00130000
#07218:00000000001300000000000000000000
#07212:0000001300000000
#0721b:00000000000000000013333333330000
#07312:13000000000000130000000000000000
#07318:0013131300000000
#07315:00000013001300000033333300000000
#07812:24241400
#0781a:24241400
#00112:24
#0011a:24
#06612:2424
#06616:00240000
#0661a:0024
#0311a:24
#0031a:24
#00312:24
#00512:24
#0051a:24
#0071a:24
#00712:24
#03312:24
#0331a:24
#05912:24
#0591a:24
#07515:2300002300002300
#07518:0000230023000023
#07715:2300002300002300
#07718:0000230023000023
#06318:0000000000333333
#06312:0033333300000000
#06418:0000000000333333
#06412:0033333300000000
#0305a:0014
#03052:0014
#06554:54
#00255:0063
#00958:00000000000000000000005300000000
#0235b:00000000000000630000000000000000
#02452:0063
#0285b:0053
#02955:63
#02958:0063
#03955:00000000000000000000006300000000
#06652:1414
#06656:00140000
#0665a:0014
#07752:0013000000000000
#0775b:0000000000130000
#07755:53
#07758:0053
#00458:0053
#00655:0063
#00858:0053
#01158:0000000000530000
#01355:00000000000000000000006300000000
#01555:0000000000630000
#02055:0000001300000000
#02252:00000000000000000053000000000000
#02752:00000000000000530000000000000000
#0265b:00000000000000000063000000000000
#03258:0053
#03455:0063
#0365a:14
#03652:14
#03755:00000000000000000053000000000000
#04155:00000000000000530000000000000000
#04655:0000001300000000
#04952:00000000000000530000000000000000
#0505b:0053
#05452:0063
#0485b:00000000000000000063000000000000
#0535b:00000000000000630000000000000000
#05252:00000000000000000053000000000000
#05558:53
#05555:0053
#0695b:00000000000000630000000000000000
#06958:00000013
#07052:0063
#07055:0000000000000013
#0745b:0053
#07458:0000000000000013
#06852:00000000000000000053000000000000
#07352:00000000000000530000000000000000
#07355:00000013
#0725b:00000000000000000063000000000000
#07552:0013000000000000
#0755b:0000000000130000
#07555:53
#07558:0053
#0565a:0014
#05652:0014
#07652:0014
#0765a:0014
#0785a:14141400
#07852:14141400
#001380:0000130000230000
#0013b0:00000000000000330000000000000000
#002350:0013
#002330:00000000000000000000003300000000
#002320:0000000000000023
#003350:0000130000230000
#003320:00000000000000330000000000000000
#004380:0013
#0043a0:00000000000000000000003300000000
#0043b0:0000000000000023
#005380:0000130000230000
#0053b0:00000000000000330000000000000000
#006350:0013
#006330:00000000000000000000003300000000
#006320:0000000000000023
#007350:0000130000230000
#007320:00000000000000330000000000000000
#008380:0013
#0083a0:00000000000000000000003300000000
#0083b0:0000000000000023
#009380:00000000000000000000001300000000
#0093a0:00000000000000000000000000330000
#0093b0:00000000000000000000000000003333
#0103b0:0023000000000000
#010350:00000000000000000000001300002300
#011380:00000000000000130000330000000000
#0113b0:00000000000000000000003333332300
#013350:00000000000000000000001300000000
#013330:00000000000000000000000000330000
#013320:00000000000000000000000000003333
#014320:0023000000000000
#014380:00000000000000000000001300002300
#015350:00000000000000130033330000000000
#015320:00000000000000000000000033332300
#0213b0:00000000000000130000230000000000
#021320:00000000000000000000000000000013
#022320:0023000000000000
#022320:00000000000000130033333333330000
#022350:0000000000000023
#0233b0:00000000000000130000000000000000
#023380:00000000000000000033333323000000
#024320:0013
#024350:00000000000000000000333333332300
#025320:00000000000000130000230000000000
#0253b0:00000000000000000000000000000013
#0263b0:0023000000000000
#0263b0:00000000000000130033333333330000
#026380:0000000000000023
#027320:00000000000000130000000000000000
#027350:00000000000000000033333323000000
#0283b0:0013
#028380:00000000000000000000333333332300
#029350:13
#029320:0023000000000000
#029380:0013
#0293b0:0000000000230000
#031320:0000130000230000
#031350:00000000000000330000000000000000
#032380:0013
#0323a0:00000000000000000000003300000000
#0323b0:0000000000000023
#0333b0:0000130000230000
#033380:00000000000000330000000000000000
#034350:0013
#034330:00000000000000000000003300000000
#034320:0000000000000023
#037350:00000000000000130033000000000000
#037320:00000000000000000000330033230000
#039350:00000000000000000000001300000000
#039330:00000000000000000000000000330000
#039320:0000000000000023
#040320:00000000000000000000001300002300
#041350:00000000000000130000000000000000
#041320:00000000000000000033230000000000
#047320:00000000000000130000230000000000
#0473b0:00000000000000000000000000000013
#0483b0:0023000000000000
#0483b0:00000000000000130033333333330000
#048380:0000000000000023
#049320:00000000000000130000000000000000
#049350:00000000000000000033333323000000
#0503b0:0013
#050380:00000000000000000000333333332300
#0513b0:00000000000000130000230000000000
#051320:00000000000000000000000000000013
#052320:0023000000000000
#052320:00000000000000130033333333330000
#052350:0000000000000023
#0533b0:00000000000000130000000000000000
#053380:00000000000000000033333323000000
#054320:0013
#054350:00000000000000000000333333332300
#055380:13
#0553b0:0023000000000000
#055350:0013
#055320:0000000000230000
#057380:00000000000000130000000000000000
#0573b0:0000000000230000
#057350:00000000000000000000000000000013
#058320:0023000000000000
#058380:00000000000000130000000000000000
#0583b0:0000000000230000
#059320:00000000000000130000000000000000
#059350:0000000000230000
#0593b0:00000000000000000000000000000013
#060380:0023000000000000
#060320:00000000000000130000000000000000
#060350:0000000000230000
#063320:1333333300000000
#063350:0023
#063381:0000000013333333
#0643b1:23
#064320:1333333300000000
#064350:0023
#064381:0000000013333333
#0653b1:23
#065340:14
#065320:0034343434343434
#066320:24
#0673b0:00000000000000130000230000000000
#067320:00000000000000000000000000000013
#068320:0023000000000000
#068320:00000000000000130033333333330000
#068350:0000000000000023
#0693b0:00000000000000130000000000000000
#069380:00000000000000000033333323000000
#070320:0013
#070350:00000000000000000000333333332300
#071320:00000000000000130000230000000000
#0713b0:00000000000000000000000000000013
#0723b0:0023000000000000
#0723b0:00000000000000130033333333330000
#072380:0000000000000023
#073320:00000000000000130000000000000000
#073350:00000000000000000033333323000000
#0743b0:0013
#074380:00000000000000000000333333332300
#075350:13
#075320:0023000000000000
#075380:0013
#0753b0:0000000000230000
#077350:13
#077320:0023000000000000
#077380:0013
#0773b0:0000000000230000
