This file was generated by Ched 2.7.0.0.
#TITLE ""
#ARTIST ""
#DESIGNER ""
#DIFFICULTY 0
#PLAYLEVEL
#SONGID ""
#WAVE ""
#WAVEOFFSET 0
#JACKET ""
#REQUEST "ticks_per_beat 480"
#00002: 4
#BPM01: 140
#00008: 01
#TIL00: ""
#VOLUME: ""
#HISPEED 00
#MEASUREHS 00
#01112:13000000000000130000000000130000
#01115:00130000130000000000000013000000
#0111b:00000000000000130000130000001300
#01118:00001300001300000000001300000000
#01116:0000000000000000000000000000000000130000000000000000000000000000
#01012:00000000130000130000001300000000
#01015:00000000001300000000000000001300
#01018:00120012000013000000000000130013
#01016:0012000000000000
#0101b:00000000000000130000001300000000
#0101b:00000000000000130000000000000000
#01212:13001300000000000013000000000000
#0121b:00130013
#01216:00000000001300000000000000130000
#01217:00130000000000001300000000000000
#01219:0000001300130000
#01214:00000000000000130000001300000000
#01218:0000000000000016
#01312:13000000000000001600001600000000
#01315:00130013000013000000000000130013
#0131b:00130000
#01318:16001300001300130016001300001300
#01712:0012000000120000
#01718:26000000000000001200001200000000
#01714:00120012
#0171a:00000000000000000000000000120000
#01716:0013001200000012
#0171b:0000333300000000
#01818:00001212000000000000000000120000
#01817:0013
#01812:2300130000000012
#01816:0000001300120000
#0181c:0000001200000000
#0181a:00000000000000000000001200000000
#01814:00000012
#0181b:23
#02115:00001300001300000000000000001300
#02118:00000013000013000000000000130000
#02112:24000000130000000000130000000013
#0211b:00000000000000130000000013000000
#0211a:24
#02110:41
#0221b:00001300000000130000000013001300
#02217:00000000000000000000000000130000
#02218:0000001300000000
#02212:00000000130000000013001300000000
#02215:00000000001300000000000000000000
#02216:0000000000130000
#02318:13000000131300130000001300000000
#02315:00001313000000000000130000000000
#02312:13000000000016000013000013000000
#0231b:00000013
#0291a:1400000000240000
#02912:00002400130000001400000000000013
#02915:00000000001300000000000000001300
#02918:00000000000013000000000000130000
#0291b:00000000000000130000000013000000
#02916:0024000000240000
#00012:13000000000013000013002600000013
#00014:00130000
#0001b:1300001300001300
#00015:00000000000000000000000000130000
#00019:00130000
#00018:0000000026130026
#00918:0012120012000012
#00916:00000012000000120000001400120014
#00912:23000000001200000014001400000000
#0091c:0000001200000000
#0091a:00000000000000000014000000000000
#0091b:23
#00910:41
#01417:00131300000000000000000000000000
#01412:00001300000000130000001300000000
#0141b:00000000130000130000001300000000
#01418:00000000001300000000000000001300
#01415:00000000000013000000000000130013
#01916:00000000000000001200000000120000
#01912:23000000330033000012000000000000
#01918:00000000000012000000120000000012
#0191a:00120012
#01914:00000000000000000000001200000000
#0191c:0012000000000012
#01917:0013000000000000
#0191b:23
#0241b:13000000000000000000000000130000
#02415:00001313000013000000000000000000
#02418:00000000131300130000000000001400
#02412:1314
#02414:0000000000140000
#02416:00000014
#02419:00000000000000000000001300000000
#02417:00000000000000000013000000000000
#03012:0024130026000000
#03015:00000000001300000000000000000000
#03018:00000000000013000000000000120012
#0301b:00000000000000130000000000000000
#03014:0000000000120000
#03016:0024000000001212
#0301a:1400000000120000
#05716:00000012000000120000000012000000
#0571c:00001200000012000000000000120000
#05718:00000000120000000000000000000012
#05712:00000000001200000000000000001200
#0571a:2400000000140000
#0571f:11
#06614:0000000000130000
#06619:0000000000130000
#06618:0000000026001212
#06616:00000000000000000000000000120012
#06612:2c26
#06615:00260000
#07817:00000000000000000000001400000000
#0781c:0000000000000012
#07812:0024230016000000
#0781a:24
#07815:00000000002300000000000000000000
#07818:0000002300000000
#0781b:00000000000000230000000000000000
#00817:00000000000000000013001300130013
#0081b:13001313
#00819:0013001300000000
#00814:0013001300000000
#00812:00130000
#00813:0000000000130013
#0201b:13
#02015:00130000000000130000000000000000
#02018:00002600130000160013001600000000
#02012:0000000000260000001600001c002400
#0201a:0000000000000024
#03712:14140000130000000000130000000000
#03716:00001400001400130000000000130000
#0371b:00000000000000130000000013001300
#03717:00000000000000000013000000000000
#03912:13000000000000130013000000000000
#03915:00130013001300000000000000130013
#0391b:00000000130000000013000000000000
#03918:00001300000013001300001300001300
#03612:24000000000000000000001300000000
#03618:00000000000013001313000000130013
#03615:00000000000000130000000000001300
#0361b:00000000000000000000001300000000
#03614:00130000
#03619:00130000
#03616:0014000000000000
#0361a:24
#03610:41
#04018:00130000000000000000000000001300
#0401b:13000000130000130000001300000000
#04015:00001300000000000000000000130013
#04012:00000013000013000000001300000000
#03812:13000013001300001300000000000000
#03817:00000000000000000015000000000000
#03814:0000000000130000
#03819:00000000000000000000001400000000
#03816:00000013
#0381b:00000000130000000000000000130000
#03818:00130000000000130000000000001300
#03815:0013001300000000
#05812:00001400001200000000000012000000
#05818:00000000120000000000000000120012
#0581c:0000001200001200
#05816:00000000000000120000000000001200
#0581a:0000000000140000
#05918:00000012000000120000000012000000
#05912:24001200000012000000140000120000
#05916:00000000120000000000000000000012
#0591c:00000000001200000000000000001200
#0591a:24
#0601a:0014000000000000
#06016:00000000120000000000000000120012
#0601c:00000000001200000000000012000000
#06012:0000001200141200
#06018:00000000000000120000000000001200
#07614:0000000000120000
#07618:00000000002300002600000012001200
#07616:00000000000000000000000000120012
#0761a:0024000000120000
#07612:24000000000000230000000000000000
#0761b:00230000
#07615:0000002300000000
#00112:00001300000000130000000013000000
#00117:0013000000000000
#0011b:00000000130000000000130000000013
#00115:29000000001300000000000000130000
#00118:0000001300000013
#00212:13001313
#00214:0013001300000000
#00219:0013001300000000
#0021b:00130000
#00216:00000000000000000013001300130000
#0021a:0000000000130013
#0031b:00001300000000130000000013000000
#00316:0013000000000000
#00312:23000000130000000000130000000013
#00318:00000000001300000000000000130000
#00315:0000001300000013
#00317:23
#0041b:13001313
#00419:0013001300000000
#00414:0013001300000000
#00412:00130000
#00417:00000000000000000013001300130000
#00413:0000000000130013
#00512:00001300000000130000000013000000
#00517:0013000000000000
#0051b:23000000130000000000130000000013
#00515:00000000001300000000000000130000
#00518:0000001300000013
#00516:23
#00612:13001313
#00614:0013001300000000
#00619:0013001300000000
#0061b:00130000
#00616:00000000000000000013001300130000
#0061a:0000000000130013
#0071b:00001300000000130000000013000000
#00716:0013000000000000
#00712:23000000130000000000130000000013
#00718:00000000001300000000000000130000
#00715:0000001300000013
#00717:23
#0151b:13000000000000130000000013000000
#01518:00130000130000000000000000001313
#01515:00001300001300000013130000000000
#01512:00000000000000130000000013000000
#01612:13000000130000000000000013001616
#01617:00000000001300000000000000130000
#01615:00130000000000000000000000000000
#01614:0000001300130000
#01619:00000000000000130000001300000000
#01616:0013
#0161b:00000013000000000013000000000000
#01618:0013000000000000
#02518:00001300001300000000000000001300
#02515:00000013000013000000000000130000
#0251b:00000000130000000000130000000013
#02512:24000000000000130000000013000000
#0251a:24
#02612:00001300000000130000000013001300
#02616:00000000000000000000000000130000
#02615:0000001300000000
#0261b:00000000130000000013001300000000
#02618:00000000001300000000000000000000
#02617:0000000000130000
#02715:13000000131300130000001300000000
#02718:00001313000016000000130000000000
#0271b:13000000000000000013000013000000
#02712:00000013
#02818:00001313000013000000140000001400
#02815:00130000131300130000000000000000
#0281b:13
#0281a:0014
#02816:00000000000000000013000014000000
#02814:00000000000000000000001300000013
#02812:13000000000000000000000000130000
#0311b:00001300000000130000000013000000
#03116:0013000000000000
#03112:24000000130000000000130000000013
#03118:00000000001300000000000000130000
#03115:0000001300000013
#0321b:13001313
#03219:0013001300000000
#03214:0013001300000000
#03212:00130000
#03217:00000000000000000013001300130000
#03213:0000000000130013
#03312:00001300000000130000000013000000
#03317:0013000000000000
#0331b:00000000130000000000130000000013
#03315:00000000001300000000000000130000
#03318:0000001300000013
#0331a:24
#03414:0014000000000000
#03418:00000000000014000000000000230000
#03412:2400000024240000
#03416:00240000
#03415:0000000000002323
#0341a:0000000024240000
#0411a:14140000000000000000000000000000
#04115:00000000000000000000000000130013
#04116:00001400001400000013000000000000
#0411b:0000130000130000
#04117:00000000000000130000000000000000
#04112:00000000000000130000000013000000
#04118:0000000000000013
#0421b:13000013001300001300000000000000
#04214:00000000000000000015000000000000
#04219:0000000000130000
#04213:00000000000000000000001400000000
#04217:00000013
#04212:00000000130000000000000000130000
#04215:00130000000000130000000000001313
#04218:0013001300000000
#04318:0000001212001212
#04316:00000000000000120000000000120000
#04317:0013000000000000
#0431c:0012000000120000
#0431a:00120000
#04312:2600330000130000
#04416:00001212000012001300000012001200
#04418:00000000121200120000000000120000
#04417:0000000000130000
#04412:23
#0441b:23
#04518:00000000000000001200000000120000
#0451c:00000000000000000012000000000000
#04516:00001300000012000000120000000012
#04514:00120012
#0451a:00000000000000000000001200000000
#04512:2312000000000012
#0451b:2300333300000000
#04612:1300260000000016000000161c002400
#04618:00130000002600130016000000000000
#04615:00000000130000000013000000000000
#0461a:0000000000000024
#04718:00001300001300000000000000001300
#04715:00000013000013000000000000130000
#0471b:00000000130000000000130000000013
#04712:24000000000000130000000013000000
#0471a:24
#04710:41
#04812:00001300000000130000000013001300
#04816:00000000000000000000000000130000
#04815:0000001300000000
#0481b:00000000130000000013001300000000
#04818:00000000001300000000000000000000
#04817:0000000000130000
#04915:13000000131300130000001300000000
#04918:00001313000016000000130000000000
#0491b:13000000000000000013000013000000
#04912:00000013
#05512:14000000000000130000240013000000
#0551b:00000000130000000000000000000013
#05518:00000000001300000000000000001300
#05515:00000000000013000000000000130000
#0551a:0024000014000000
#05516:0024000000240000
#05012:13000000000000000000000000130000
#05018:00001313000013000000140000000000
#05015:00000000131300130000000000000000
#0501b:13
#0501a:0014
#05016:00000000000000000013000014000000
#05014:00000000000000000000001300001400
#0561b:00130000
#05618:00000000001300002600000012001200
#05615:0000001300000000
#05612:14000000000000130000000000000000
#0561a:0024000000120000
#05616:00002400000000000000000000120012
#05614:0000000000120000
#05610:41
#05115:00001300001300000000000000001300
#05118:00000013000013000000000000130000
#05112:24000000130000000000130000000013
#0511b:00000000000000130000000013000000
#0511a:24
#0521b:00001300000000130000000013001300
#05217:00000000000000000000000000130000
#05218:0000001300000000
#05212:00000000130000000013001300000000
#05215:00000000001300000000000000000000
#05216:0000000000130000
#05318:13000000131300130000001300000000
#05315:00001313000000000000130000000000
#05312:13000000000016000013000013000000
#0531b:00000013
#05415:00001313000013000000000000000000
#05418:00130000131300130000000000000000
#05412:1314
#05414:0000000000140014
#05416:00000014
#05419:00000000000000000000001300000013
#0541b:13000000000000000000000000130000
#05417:00000000000000000013000000000000
#06112:12
#06113:0012000000000000
#06114:00120000
#06115:0000001200000000
#06116:0012
#06117:0000000000120000
#06118:00000012
#06119:0000000000000012
#06212:13
#06213:0013000000000000
#06214:00130000
#06215:0000001300000000
#06216:0013
#06217:0000000000130000
#06218:00000013
#06219:0000000000000013
#06312:14
#06313:0014000000000000
#06314:00140000
#06315:0000001400000000
#06316:0014
#06317:0000000000140000
#06318:00000014
#06319:0000000000000014
#06412:15
#06413:0015000000000000
#06414:00150000
#06415:0000001500000000
#06416:0015
#06417:0000000000150000
#06418:00000015
#06419:0000000000000015
#06715:00001300000013000000000000130000
#0671b:00000000130000000000130000000013
#06712:24000000000000130000000013000000
#06718:00000013001300000000000000001300
#06716:0000000000000000000000000000000000130000000000000000000000000000
#0671a:24
#0671f:21
#06710:00000041
#06815:0000001300001300
#06818:00000000001300000000130000130000
#06812:00001300000000130000000000001300
#0681b:00000000130000000013001300000000
#06817:0013000000000000000000000000000000000000000000000000000000000000
#06912:13000000000000130000000013000000
#06918:00001313000016000000130000000000
#06915:00000000131300000000001300000000
#0691b:13000000000000000013000013000000
#0701b:13
#07012:13001313000013000000000000131600
#07018:00000000131300001600000000000000
#07015:00000000000000130000000000000000
#07016:00000000000000000013160000000000
#07014:00000000000000000000001316000000
#07419:00000000000000000000001300000013
#0741b:00001313000013000000000000130000
#07415:16160000131300000000000000000000
#07418:00000000000000130000000000000000
#07412:0016
#07414:0000000000160016
#07416:00000016
#07417:00000000000000000013000000000000
#07118:00001300000013000000000000130000
#07112:24000000130000000000130000000013
#0711b:00000000000000130000000013000000
#07115:00000013001300000000000000001300
#07117:0000000000000000000000000000000000130000000000000000000000000000
#0711a:24
#07218:0000001300001300
#07215:00000000001300000000130000130000
#0721b:00001300000000130000000000001300
#07212:00000000130000000013001300000000
#07216:0013000000000000000000000000000000000000000000000000000000000000
#0731b:13000000000000130000000013000000
#07315:00001313000000000000130000000000
#07318:00000000131300000000001300000000
#07312:13000000000016000013000013000000
#06512:2425262728292a2b
#07512:24000000000000230000240023000000
#0751a:0024000024000000
#0751b:00000000230000000000000000000023
#07518:00000000002300000000000000002300
#07515:00000000000023000000000000230000
#0771a:2400000000240000
#07712:00002400230000002400000000000023
#07715:00000000002300000000000000002300
#07718:00000000000023000000000000230000
#0771b:00000000000000230000000023000000
#02358:00000000000000530000000000000000
#02352:00000013
#0235b:00000013
#0295a:54
#02952:0064
#02956:0014000000140000
#00956:00000000000000000000005400000064
#01052:00000000000000130000005300000000
#01158:0053000000000000
#01152:00000000000000530000000000000000
#0115b:0000000000000053
#01156:0000000000000000000000000000000000230000000000000000000000000000
#01252:00006300000000000033000000000000
#01254:00000000000000000000003300000000
#01256:00000000000000000000000000330000
#01358:00000000000000000016005300000000
#01355:00000000000000000000000000000063
#01452:0053000000000000
#0145b:00000000000000130000006300000000
#01857:0063
#01852:00530000
#01856:0000002300000000
#02152:14000000000000000000130000000063
#0215b:00000000000000630000000000000000
#0215a:14
#02156:0000000000130000
#0225b:00001300000000630000000000001300
#02257:0013000000000000
#0245b:53
#02452:0034
#02454:0000000000340000
#02456:00000034
#02458:0000000000000034
#05756:00000000000000520000000000000000
#0575a:4400000000140000
#05758:00000000000000000000000000000062
#05752:0000000000140000
#07857:00000000000000000000001400000000
#0785c:0000000000000012
#0785a:64
#07852:0014000016000000
#07856:0014000000000000
#01756:0063000000000000
#01758:46
#01957:0053000000000000
#02058:00000000000000160000000000000000
#02052:0000000000000000001600001c000000
#03652:14000000000000000000005300000000
#0365a:14
#03756:00005400000000630000000000000000
#03752:0000000000530000
#03958:00000000000000000000005300000000
#0405b:00000000630000000000006300000000
#03857:00000000000000000045000000000000
#03859:00000000000000000000004400000000
#0385b:00000000000000000000000000430000
#05852:0014000000140000
#05856:00000000000000520000000000000000
#0585a:0014000000140000
#05958:00000000000000620000000000000000
#05952:0000000000140000
#05956:00000000000000000000000000000052
#0595a:0000000000140000
#0605a:0014000000140000
#06058:00000000000000620000000000000000
#06052:0014000000140000
#00155:49
#00152:00000000000000530000000000000000
#06658:0046
#06652:1c36
#06655:00160000
#03152:34
#0315b:00000000000000630000000000000000
#0035b:00000000000000630000000000000000
#00552:00000000000000530000000000000000
#0075b:00000000000000630000000000000000
#01555:0063000000000000
#0155b:00000000000000530000000000000000
#0165b:00000000000000000043000000000000
#01659:00000000000000000000004300000000
#01657:00000000000000000000000000430000
#02652:00001300000000530000000000001300
#02656:0013000000000000
#02755:00000000000000630000000000000000
#0275b:00000013
#02752:00000013
#0255b:00000000000000000000130000000053
#02552:14000000000000530000000000000000
#0255a:14
#02557:0000000000130000
#0285a:0044
#02858:0000000000440044
#02856:00000044
#0305a:54
#03056:0014000000000000
#03052:0016
#03352:00000000000000530000000000000000
#0335a:44
#04156:0064000000000000
#04157:00000000000000530000000000000000
#0415b:0000000000630000
#04254:00000000000000000035000000000000
#04253:00000000000000000000003400000000
#04252:00000000000000000000000000330000
#04456:0053
#04457:0000000000530000
#04357:0053000000000000
#04352:3600000000530000
#04556:0063000000000000
#04652:0000000000000016000000001c000000
#04658:00000000000000000016000000000000
#04852:00001300000000530000000000001300
#04856:0013000000000000
#04955:00000000000000630000000000000000
#0495b:00000013
#04952:00000013
#05552:64
#0555a:0054
#05556:0014000000140000
#0475b:00000000000000000000130000000053
#04752:14000000000000530000000000000000
#0475a:14
#04757:0000000000130000
#05052:63
#0505a:0044
#05058:0000000000440000
#05056:00000044
#05054:0000000000000044
#0525b:00001300000000630000000000001300
#05257:0013000000000000
#05358:00000000000000530000000000000000
#05352:00000013
#0535b:00000013
#05152:14000000000000000000130000000063
#0515b:00000000000000630000000000000000
#0515a:14
#05156:0000000000130000
#05452:0034
#05454:0000000000340034
#05456:00000034
#05652:64
#05656:0014000000000000
#05658:0016
#06852:00003300000000530000000000001300
#06857:0023000000000000000000000000000000000000000000000000000000000000
#0685b:0043000000000000
#06952:00000000000000630000000013000000
#0695b:00000013
#06752:14000000000000530000330000000000
#0675a:14
#06756:0000000000000000000000000000000000230000000000000000000000000000
#0675b:00000000000000000000430000000063
#0705b:63
#07058:0046
#07056:0000000000460000
#07054:00000046
#07052:0000000000000046
#07658:0016
#0765a:0014000000000000
#07656:0014000000000000
#07652:54
#0725b:00004300000000630000000000001300
#07256:0023000000000000000000000000000000000000000000000000000000000000
#07252:0033000000000000
#0735b:00000000000000530000000013000000
#07352:00000013
#07152:14000000000000000000330000000053
#0715b:00000000000000630000430000000000
#07157:0000000000000000000000000000000000230000000000000000000000000000
#0715a:14
#07452:0036
#07454:0000000000360036
#07456:00000036
#07556:0014000000140000
#0755a:0014000054000000
#07552:5400000000140000
#0775a:6400000000140000
#07752:0014000064000000
#07756:0014000000140000
#001320:00000000000000130000000000000000
#001360:0000000000230000
#0033b0:00000000000000130000000000000000
#003370:0000000000230000
#005320:00000000000000130000000000000000
#005360:0000000000230000
#0073b0:00000000000000130000000000000000
#007370:0000000000230000
#009360:00000000000000000000001400000000
#0093a0:00000000000000000000000000240000
#009360:00000000000000000000000000000014
#010320:00240000000000000000000000000000
#010320:00000000000000000000001300000000
#010350:00000000000000000000000000230000
#011380:0013000000000000
#0113b0:00230000
#011320:00000000000000130000230000000000
#011360:0000000000000000000000000000000000530000000000000000000000000000
#0113b0:0000000000000013
#012370:23
#012320:0013000000000000
#012360:00230000
#013380:00000000000000000000001300000000
#0133b0:00000000000000000000000000230000
#013350:00000000000000000000000000000013
#014320:00230000000000000000000000000000
#014320:0013000000000000
#014350:00230000
#0143b0:00000000000000000000001300000000
#014380:00000000000000000000000000230000
#015350:0013000000000000
#015320:00230000
#0153b0:00000000000000130000000000000000
#015380:00000000000000000023000000000000
#017360:0013000000000000
#0173b0:0000333323000000
#018320:00132300
#018360:0000005300000000
#018371:0013
#0183b1:0000000000230000
#019371:0013000000000000
#019321:0000333323000000
#0213b1:00000000000000130000000000000000
#021361:00000000000000000053230000000000
#021321:00000000000000000000000000000013
#022371:00532300000000000000000000000000
#0223b1:00000000000000130000000000000000
#022361:00000000000000000023000000000000
#023381:00000000000000130000000000000000
#0233b1:00000000000000000023000000000000
#0243b1:13
#024381:0023000000000000
#025321:00000000000000130000000000000000
#025371:00000000000000000053230000000000
#0253b1:00000000000000000000000000000013
#026361:00532300000000000000000000000000
#026321:00000000000000130000000000000000
#026371:00000000000000000023000000000000
#027351:00000000000000130000000000000000
#027321:00000000000000000023000000000000
#0293a1:14
#029361:0024000000000000
#029321:0014
#029361:0000000000240000
#0303a1:14
#030361:0024000000000000
#0313b1:00000000000000130000000000000000
#031371:0000000000230000
#033321:00000000000000130000000000000000
#033361:0000000000230000
#036321:00000000000000000000001300000000
#036351:00000000000000000000000000230000
#037361:0014000000000000
#0373a1:00240000
#037361:00000000000000130000000000000000
#037321:00000000000000000023000000000000
#037321:0000000000130000
#037361:00000023
#039381:00000000000000000000001300000000
#0393b1:00000000000000000000000000230000
#0403b1:00130000
#040371:0000002300000000
#0403b1:00000000000000000000001300000000
#040381:00000000000000000000000000230000
#041361:0014000000000000
#041321:00240000
#041371:00000000000000130000000000000000
#0413b1:00000000000000000023000000000000
#0413b1:0000000000130000
#041371:00000023
#043371:0013000000000000
#043321:0000332300000000
#043321:0000000000130000
#043351:00000023
#044361:0013
#044321:0000000000230000
#044370:0000000000130000
#0443b0:00000023
#045360:0013000000000000
#0453b0:0000333323000000
#047320:00000000000000130000000000000000
#047370:00000000000000000053230000000000
#0473b0:00000000000000000000000000000013
#048360:00532300000000000000000000000000
#048320:00000000000000130000000000000000
#048370:00000000000000000023000000000000
#049350:00000000000000130000000000000000
#049320:00000000000000000023000000000000
#050320:13
#050350:0023000000000000
#0513b0:00000000000000130000000000000000
#051360:00000000000000000053230000000000
#051320:00000000000000000000000000000013
#052370:00532300000000000000000000000000
#0523b0:00000000000000130000000000000000
#052360:00000000000000000023000000000000
#053380:00000000000000130000000000000000
#0533b0:00000000000000000023000000000000
#055320:14
#055360:0024000000000000
#0553a0:0014
#055360:0000000000240000
#056320:14
#056360:0024000000000000
#057360:00000000000000120000000000000000
#057320:0000000000240000
#057380:00000000000000000000000000000012
#0583a0:0024000000000000
#058360:00000000000000120000000000000000
#058320:0000000000240000
#059380:00000000000000120000000000000000
#0593a0:0000000000240000
#059360:00000000000000000000000000000012
#060320:0024000000000000
#060380:00000000000000120000000000000000
#0603a0:0000000000240000
#0613c0:120000000000000000000000000000000000000000000000000000000000000000000000000000000000000000000000000000000000000000000000000000000000000000000000000000000000000000000000000000000000000000000000000000000000000000000000000000000000000000000000000000000000000000000000000000000000000000000000000000000000000000000000000000000000000000000000000000000000000000000000000000000000000000000000000000000000000000000000000000000000000000000000000000000000000000000000000000000000000000000000000000000000000000000000000000000000000000000000000000000000000000000000000000000000000000000000000000000000000000000000000000000000000000000000000000000000000000000000000000000000000000000000000000000000000000000000000000000000000000000000000000000000000000000000000000000000000000000000000000000000000000000000000000000000000000000000000000000000000000000000000000000000000000000000000000000000000000000000000000000000000000000000000000000000000000000000000000000000000000000000000000000000000000000000000000000000000000000000000000000000000000000000000000000000000000000000000000000000000000000000000000000000000000000000000000000000000000000000000000000000000000000000000000000000000000000000000000000000000000000000000000000000000000000000000000000000000000000000000000000000000000000000000000000000000000000000000000000000000000000000000000000000000000000000000000000000000000000000000000000000000000000000000000000000000000000000000000000000000000000000000000000000000000000000000000000000000000000000000000000000000000000000000000000000000000000000000000000000000000000000000000000000000000000000000000000000000000000000000000000000000000000000000000000000000000000000000000000000000000000000000000000000000000000000000000000000000000000000000000000000000000000000000000000000000000000000000000000000000000000000000000000000000000000000000000000000000000000000000000000000000000000000000000000000000000000000000000000000000000000000320000000000000000000000000000000000000000000000000000000000000000000000000000000000000000000000000000000000000000000000000000000000000000000000000000000000000000000000000000000000000000000000000000000000000000000000000000000000000000000000000000000000000000000000000000000000000000000000000000000000000000000000000000000000000000000000000000000000000000000000000000000000000000000000000000000000000000000000000000000000000000000000000000000000000000000000000000000000000000000000000000000000000000000000000000000000000000000000000000000000000000000000000000000000000000000000000000000000000000000000000000000000000000000000000000000000000000000000000000000000000000000000000000000000000000000000000000000000000000000000000000000000000000000000000000000000000000000000000000000000000000000000000000000000000000000000000000000000000000000000000000000000000000000000000000000000000000000000000000000000000000000000000000000000000000000000000000000000000000000000000000000000000000000000000000000000000000000000000000000000000000000000000000000000000000000000000000000000000000000000000000000000000000000000000000000000000000000000000000000000000000000000000000000000000000000000000000000000000000000000000000000000000000000000000000000000000000000000000000000000000000000000000000000000000000000000000000000000000000000000000000000000000000000000000000000000000000000000000000000000000000000000000000000000000000000000000000000000000000000000000000000000000000000000000000000000000000000000000000000000000000000000000000000000000000000000000000000000000000000000000000000000000000000000000000000000000000000000000000000000000000000000000000000000000000000000000000000000000000000000000000000000000000000000000000000000000000000000000000000000000000000000000000000000000000000000000000000000000000000000000000000000000000000000000000000000000000000000000000000000000000000000000000000000000000000000000000000000000000000052
#0623b0:330000000000000000000000000000000000000000000000000000000000000000000000000000000000000000000000000000000000000000000000000000000000000000000000000000000000000000000000000000000000000000000000000000000000000000000000000000000000000000000000000000000000000000000000000000000000000000000000000000000000000000000000000000000000000000000000000000000000000000000000000000000000000000000000000000000000000000000000000000000000000000000000000000000000000000000000000000000000000000000000000000000000000000000000000000000000000000000000000000000000000000000000000000000000000000000000000000000000000000000000000000000000000000000000000000000000000000000000000000000000000000000000000000000000000000000000000000000000000000000000000000000000000000000000000000000000000000000000000000000000000000000000000000000000000000000000000000000000000000000000000000000000000000000000000000000000000000000000000000000000000000000000000000000000000000000000000000000000000000000000000000000000000000000000000000000000000000000000000000000000000000000000000000000000000000000000000000000000000000000000000000000000000000000000000000000000000000000000000000000000000000000000000000000000000000000000000000000000000000000000000000000000000000000000000000000000000000000000000000000000000000000000000000000000000000000000000000000000000000000000000000000000000000000000000000000000000000000000000000000000000000000000000000000000000000000000000000000000000000000000000000000000000000000000000000000000000000000000000000000000000000000000000000000000000000000000000000000000000000000000000000000000000000000000000000000000000000000000000000000000000000000000000000000000000000000000000000000000000000000000000000000000000000000000000000000000000000000000000000000000000000000000000000000000000000000000000000000000000000000000000000000000000000000000000000000000000000000000000000000000000000000000000000000000000000000000000000000000000000000000330000000000000000000000000000000000000000000000000000000000000000000000000000000000000000000000000000000000000000000000000000000000000000000000000000000000000000000000000000000000000000000000000000000000000000000000000000000000000000000000000000000000000000000000000000000000000000000000000000000000000000000000000000000000000000000000000000000000000000000000000000000000000000000000000000000000000000000000000000000000000000000000000000000000000000000000000000000000000000000000000000000000000000000000000000000000000000000000000000000000000000000000000000000000000000000000000000000000000000000000000000000000000000000000000000000000000000000000000000000000000000000000000000000000000000000000000000000000000000000000000000000000000000000000000000000000000000000000000000000000000000000000000000000000000000000000000000000000000000000000000000000000000000000000000000000000000000000000000000000000000000000000000000000000000000000000000000000000000000000000000000000000000000000000000000000000000000000000000000000000000000000000000000000000000000000000000000000000000000000000000000000000000000000000000000000000000000000000000000000000000000000000000000000000000000000000000000000000000000000000000000000000000000000000000000000000000000000000000000000000000000000000000000000000000000000000000000000000000000000000000000000000000000000000000000000000000000000000000000000000000000000000000000000000000000000000000000000000000000000000000000000000000000000000000000000000000000000000000000000000000000000000000000000000000000000000000000000000000000000000000000000000000000000000000000000000000000000000000000000000000000000000000000000000000000000000000000000000000000000000000000000000000000000000000000000000000000000000000000000000000000000000000000000000000000000000000000000000000000000000000000000000000000000000000000000000000000000000000000000000000000000000000000000000000000000000000000000000000000000053
#0633a0:340000000000000000000000000000000000000000000000000000000000000000000000000000000000000000000000000000000000000000000000000000000000000000000000000000000000000000000000000000000000000000000000000000000000000000000000000000000000000000000000000000000000000000000000000000000000000000000000000000000000000000000000000000000000000000000000000000000000000000000000000000000000000000000000000000000000000000000000000000000000000000000000000000000000000000000000000000000000000000000000000000000000000000000000000000000000000000000000000000000000000000000000000000000000000000000000000000000000000000000000000000000000000000000000000000000000000000000000000000000000000000000000000000000000000000000000000000000000000000000000000000000000000000000000000000000000000000000000000000000000000000000000000000000000000000000000000000000000000000000000000000000000000000000000000000000000000000000000000000000000000000000000000000000000000000000000000000000000000000000000000000000000000000000000000000000000000000000000000000000000000000000000000000000000000000000000000000000000000000000000000000000000000000000000000000000000000000000000000000000000000000000000000000000000000000000000000000000000000000000000000000000000000000000000000000000000000000000000000000000000000000000000000000000000000000000000000000000000000000000000000000000000000000000000000000000000000000000000000000000000000000000000000000000000000000000000000000000000000000000000000000000000000000000000000000000000000000000000000000000000000000000000000000000000000000000000000000000000000000000000000000000000000000000000000000000000000000000000000000000000000000000000000000000000000000000000000000000000000000000000000000000000000000000000000000000000000000000000000000000000000000000000000000000000000000000000000000000000000000000000000000000000000000000000000000000000000000000000000000000000000000000000000000000000000000000000000000000000000000000000340000000000000000000000000000000000000000000000000000000000000000000000000000000000000000000000000000000000000000000000000000000000000000000000000000000000000000000000000000000000000000000000000000000000000000000000000000000000000000000000000000000000000000000000000000000000000000000000000000000000000000000000000000000000000000000000000000000000000000000000000000000000000000000000000000000000000000000000000000000000000000000000000000000000000000000000000000000000000000000000000000000000000000000000000000000000000000000000000000000000000000000000000000000000000000000000000000000000000000000000000000000000000000000000000000000000000000000000000000000000000000000000000000000000000000000000000000000000000000000000000000000000000000000000000000000000000000000000000000000000000000000000000000000000000000000000000000000000000000000000000000000000000000000000000000000000000000000000000000000000000000000000000000000000000000000000000000000000000000000000000000000000000000000000000000000000000000000000000000000000000000000000000000000000000000000000000000000000000000000000000000000000000000000000000000000000000000000000000000000000000000000000000000000000000000000000000000000000000000000000000000000000000000000000000000000000000000000000000000000000000000000000000000000000000000000000000000000000000000000000000000000000000000000000000000000000000000000000000000000000000000000000000000000000000000000000000000000000000000000000000000000000000000000000000000000000000000000000000000000000000000000000000000000000000000000000000000000000000000000000000000000000000000000000000000000000000000000000000000000000000000000000000000000000000000000000000000000000000000000000000000000000000000000000000000000000000000000000000000000000000000000000000000000000000000000000000000000000000000000000000000000000000000000000000000000000000000000000000000000000000000000000000000000000000000000000000000000000000000000054
#064390:350000000000000000000000000000000000000000000000000000000000000000000000000000000000000000000000000000000000000000000000000000000000000000000000000000000000000000000000000000000000000000000000000000000000000000000000000000000000000000000000000000000000000000000000000000000000000000000000000000000000000000000000000000000000000000000000000000000000000000000000000000000000000000000000000000000000000000000000000000000000000000000000000000000000000000000000000000000000000000000000000000000000000000000000000000000000000000000000000000000000000000000000000000000000000000000000000000000000000000000000000000000000000000000000000000000000000000000000000000000000000000000000000000000000000000000000000000000000000000000000000000000000000000000000000000000000000000000000000000000000000000000000000000000000000000000000000000000000000000000000000000000000000000000000000000000000000000000000000000000000000000000000000000000000000000000000000000000000000000000000000000000000000000000000000000000000000000000000000000000000000000000000000000000000000000000000000000000000000000000000000000000000000000000000000000000000000000000000000000000000000000000000000000000000000000000000000000000000000000000000000000000000000000000000000000000000000000000000000000000000000000000000000000000000000000000000000000000000000000000000000000000000000000000000000000000000000000000000000000000000000000000000000000000000000000000000000000000000000000000000000000000000000000000000000000000000000000000000000000000000000000000000000000000000000000000000000000000000000000000000000000000000000000000000000000000000000000000000000000000000000000000000000000000000000000000000000000000000000000000000000000000000000000000000000000000000000000000000000000000000000000000000000000000000000000000000000000000000000000000000000000000000000000000000000000000000000000000000000000000000000000000000000000000000000000000000000000000000000000003500000000000000000000000000000000000000000000000000000000000000000000000000000000000000000000000000000000000000000000000000000000000000000000000000000000000000000000000000000000000000000000000000000000000000000000000000000000000000000000000000000000000000000000000000000000000000000000000000000000000000000000000000000000000000000000000000000000000000000000000000000000000000000000000000000000000000000000000000000000000000000000000000000000000000000000000000000000000000000000000000000000000000000000000000000000000000000000000000000000000000000000000000000000000000000000000000000000000000000000000000000000000000000000000000000000000000000000000000000000000000000000000000000000000000000000000000000000000000000000000000000000000000000000000000000000000000000000000000000000000000000000000000000000000000000000000000000000000000000000000000000000000000000000000000000000000000000000000000000000000000000000000000000000000000000000000000000000000000000000000000000000000000000000000000000000000000000000000000000000000000000000000000000000000000000000000000000000000000000000000000000000000000000000000000000000000000000000000000000000000000000000000000000000000000000000000000000000000000000000000000000000000000000000000000000000000000000000000000000000000000000000000000000000000000000000000000000000000000000000000000000000000000000000000000000000000000000000000000000000000000000000000000000000000000000000000000000000000000000000000000000000000000000000000000000000000000000000000000000000000000000000000000000000000000000000000000000000000000000000000000000000000000000000000000000000000000000000000000000000000000000000000000000000000000000000000000000000000000000000000000000000000000000000000000000000000000000000000000000000000000000000000000000000000000000000000000000000000000000000000000000000000000000000000000000000000000000000000000000000000000000000000000000000000000000000000000000000000000000000000055
#065380:360000000000000000000000000000000000000000000000000000000000000000000000000000000000000000000000000000000000000000000000000000000000000000000000000000000000000000000000000000000000000000000000000000000000000000000000000000000000000000000000000000000000000000000000000000000000000000000000000000000000000000000000000000000000000000000000000000000000000000000000000000000000000000000000000000000000000000000000000000000000000000000000000000000000000000000000000000000000000000000000000000000000000000000000000000000000000000000000000000000000000000000000000000000000000000000000000000000000000000000000000000000000000000000000000000000000000000000000000000000000000000000000000000000000000000000000000000000000000000000000000000000000000000000000000000000000000000000000000000000000000000000000000000000000000000000000000000000000000000000000000000000000000000000000000000000000000000000000000000000000000000000000000000000000000000000000000000000000000000000036000000000000000000000000000000000000000000000000000000000000000000000000000000000000000000000000000000000000000000000000000000000000000000000000000000000000000000000000000000000000000000000000000000000000000000000000000000000000000000000000000000000000000000000000000000000000000000000000000000000000000000000000000000000000000000000000000000000000000000000000000000000000000000000000000000000000000000000000000000000000000000000000000000000000000000000000000000000000000000000000000000000000000000000000000000000000000000000000000000000000000000000000000000000000000000000000000000000000000000000000000000000000000000000000000000000000000000000000000000000000000000000000000000000000000000000000000000000000000000000000000000000000000000000000000000000000000000000000000000000000000000000000000000000000000000000000000000000000000000000000000000000000000000000000000000000000000000000000000000000000000000000000000000000000000000000000000000000000000000005600
#066320:2c
#067320:00000000000000130000230000000000
#067360:0000000000000000000000000000000000530000000000000000000000000000
#0673b0:00000000000000000000000000000013
#068370:0053000000000000000000000000000000000000000000000000000000000000
#0683b0:0023000000000000
#068320:00000000000000130000000000000000
#068380:00000000000000000023000000000000
#069320:00000000000000130000000000000000
#069360:00000000000000000023000000000000
#0703b0:13
#070370:0023000000000000
#0713b0:00000000000000130000230000000000
#071370:0000000000000000000000000000000000530000000000000000000000000000
#071320:00000000000000000000000000000013
#072360:0053000000000000000000000000000000000000000000000000000000000000
#072320:0023000000000000
#0723b0:00000000000000130000000000000000
#072350:00000000000000000023000000000000
#0733b0:00000000000000130000000000000000
#073370:00000000000000000023000000000000
#075320:14
#075360:0024000000000000
#0753a0:0014
#075360:0000000000240000
#076320:14
#076360:0024000000000000
#0773a0:14
#077360:0024000000000000
#077320:0014
#077360:0000000000240000
#0783a0:14
#078360:0024000000000000
