This file was generated by Ched 2.7.0.0.
#TITLE ""
#ARTIST ""
#DESIGNER ""
#DIFFICULTY 0
#PLAYLEVEL
#SONGID ""
#WAVE ""
#WAVEOFFSET 0
#JACKET ""
#REQUEST "ticks_per_beat 480"
#00002: 4
#BPM01: 140
#00008: 01
#TIL00: ""
#VOLUME: ""
#HISPEED 00
#MEASUREHS 00
#00214:1414
#00218:00140000
#00418:1414
#00414:00140000
#00912:14140000
#00918:00001414
#00910:41
#01014:14140000
#0101a:00001414
#02118:00140014
#02112:2414
#02110:41
#02214:1414
#0221a:00140014
#02518:00140014
#02512:2414
#02614:1414
#0261a:00140014
#03612:1414
#03618:00140000
#03610:41
#0371a:1414
#03714:00140014
#0011a:2414
#00114:00140000
#00312:2414
#00318:00140000
#01112:1414
#01118:00140014
#0201a:14
#02018:0014
#02014:00140000
#02312:00000014
#0241a:00000014
#02714:00000014
#02818:00000014
#0301a:14141400
#03012:14141400
#03214:1414
#03218:00140014
#03418:1414
#03414:00140014
#0311a:2414
#03114:00140000
#03312:2414
#03318:00140000
#0351a:14
#04612:14
#04614:0014
#04618:00140000
#05714:14
#05712:0000001400000000
#0571f:11
#0581a:14
#05814:00140000
#05818:0014
#05812:00000014
#05918:14
#0591a:0000001400000000
#06114:14
#06112:00343400
#06218:14
#0621a:00343400
#06314:14
#06312:00343400
#06418:14
#0641a:00343400
#06512:14
#06518:14
#06514:0034343434343434
#0651a:0034343434343434
#06712:00140000
#06718:0014
#06714:00000014
#0671a:24
#0671f:21
#06710:00000041
#0681a:14140000
#06814:0014
#06818:00000014
#07212:14140000
#07218:0014
#07214:00000014
#06912:00000014
#0701a:00000014
#07318:00000014
#07414:00000014
#0761a:14141400
#07612:14141400
#07812:14141400
#0781a:14141400
#00614:1414
#00618:00140000
#00818:1414
#00814:00140000
#0051a:2414
#00514:00140000
#00712:2414
#00718:00140000
#01212:14
#01214:00343400
#0131a:14140000
#01314:00001414
#01418:14140000
#01412:00001414
#0151a:1414
#01514:00140014
#0161a:14
#01618:00343400
#01714:14343400
#01712:0000001400000000
#0181a:0000001400000000
#01818:14343400
#01912:0000001400000000
#01914:14343400
#0381a:14
#03818:00343400
#03912:14140000
#03918:00001414
#04014:14140000
#0401a:00001414
#04112:1414
#04118:00140014
#04212:14
#04214:00343400
#0431a:14343400
#04318:0000001400000000
#04414:0000001400000000
#04412:14343400
#04518:0000001400000000
#0451a:14343400
#04714:00140014
#0471a:2414
#04710:41
#04818:1414
#04812:00140014
#05114:00140014
#0511a:2414
#05218:1414
#05212:00140014
#0491a:00000014
#05012:00000014
#05318:00000014
#05414:00000014
#05612:14141400
#0561a:14141400
#05610:41
#06012:14
#06018:00140000
#06014:0014
#0601a:00000014
#0711a:00140000
#07114:0014
#07118:00000014
#07112:24
#0661a:24
#06614:2424
#06618:00240000
#05754:64
#05752:0000002400000000
#05958:54
#0595a:0000002400000000
#06154:54
#06258:64
#06354:54
#06458:64
#06552:64
#06558:64
#0785a:0014
#07852:0014
#0665a:14
#06654:1414
#06658:00140000
#0355a:14
#01252:54
#0165a:64
#01754:54
#01752:0000002400000000
#01858:54
#0185a:0000002400000000
#01954:54
#01952:0000002400000000
#02552:14
#02152:14
#0385a:64
#04252:54
#0435a:54
#04358:0000002400000000
#04454:0000002400000000
#04452:54
#04558:0000002400000000
#0455a:54
#0475a:14
#0515a:14
#0675a:14
#07152:14
#012320:14
#012340:00343424
#0163a0:14
#016380:00343424
#017340:14343424
#017320:0000005400000000
#018380:14343424
#0183a0:0000005400000000
#019340:14343424
#019320:0000005400000000
#023340:14
#023330:00340000
#023320:0024
#024380:14
#024390:00340000
#0243a0:0024
#027320:14
#027330:00340000
#027340:0024
#0283a0:14
#028390:00340000
#028380:0024
#029320:14240000
#0293a0:00001424
#0383a0:14
#038380:00343424
#042320:14
#042340:00343424
#0433a0:14343424
#043380:0000005400000000
#044320:14343424
#044340:0000005400000000
#0453a0:14343424
#045380:0000005400000000
#049380:14
#049390:00340000
#0493a0:0024
#050340:14
#050330:00340000
#050320:0024
#0533a0:14
#053390:00340000
#053380:0024
#054320:14
#054330:00340000
#054340:0024
#0553a0:14240000
#055320:00001424
#057340:14000024
#057320:0000005400000000
#059380:14000024
#0593a0:0000005400000000
#061340:14
#061320:00343424
#062380:14
#0623a0:00343424
#063340:14
#063320:00343424
#064380:14
#0643a0:00343424
#065320:14
#065340:0034343434343434
#066340:24
#065381:14
#0653a1:0034343434343434
#0663a1:24
#069341:14
#069331:00340000
#069321:0024
#070381:14
#070391:00340000
#0703a1:0024
#0733a1:14
#073391:00340000
#073381:0024
#074321:14
#074331:00340000
#074341:0024
#0753a1:14240000
#075321:00001424
#0773a1:14240000
#077321:00001424
