This file was generated by Ched 2.7.0.0.
#TITLE ""
#ARTIST ""
#DESIGNER ""
#DIFFICULTY 0
#PLAYLEVEL
#SONGID ""
#WAVE ""
#WAVEOFFSET 0
#JACKET ""
#REQUEST "ticks_per_beat 480"
#00002: 4
#BPM01: 130
#00008: 01
#TIL00: ""
#VOLUME: ""
#HISPEED 00
#MEASUREHS 00
#00618:14
#00714:14
#0081a:14
#00912:14
#01018:14
#01114:14
#01312:14
#01310:41
#01412:14
#01518:14
#01618:14
#01714:14
#01814:14
#0191a:14
#0201a:14
#02918:0016
#02912:26
#02910:41
#03118:16
#03112:0016
#04418:0014
#04514:0014
#0491a:0014
#04912:0014
#0501a:0014
#05012:0014
#06314:14
#06512:14
#06714:14
#06818:14
#06912:14
#0121a:14
#03312:16
#03318:0016
#03412:1616
#03518:16
#03512:0016
#03618:1616
#03818:0016
#03912:16
#03918:0016
#04212:0016
#04318:16
#04312:0014
#0431f:0011
#05118:0016
#0511f:0021
#05212:16
#05218:0016
#05210:00000041
#05312:0016
#05318:16
#05418:16
#05412:0016
#05512:16
#05712:16
#05718:0016
#05812:16
#06118:16
#06112:0016
#0621a:14
#06210:41
#06418:14
#00512:24
#0461a:0024
#0471a:0024
#04712:0024
#0481a:0024
#04812:0024
#0661a:24
#07018:26
#02110:41
#04110:41
#003380:16
#004380:26
#021320:14
#022320:24
#023380:14
#024380:24
#025340:14
#026340:24
#0273a0:14
#0283a0:24
#030320:1626
#032380:1626
#037320:1636
#038320:26
#040320:1626
#041380:1636
#042380:26
#055380:0016
#056380:3626
#058380:0016
#059380:26
#059320:0016
#060320:3626
#070380:16003636363636000036363636003636
#074390:24
