This file was generated by Ched 2.7.0.0.
#TITLE ""
#ARTIST ""
#DESIGNER ""
#DIFFICULTY 0
#PLAYLEVEL
#SONGID ""
#WAVE ""
#WAVEOFFSET 0
#JACKET ""
#REQUEST "ticks_per_beat 480"
#00002: 4
#BPM01: 130
#00008: 01
#TIL00: ""
#VOLUME: ""
#HISPEED 00
#MEASUREHS 00
#06412:1300000013000013
#0641b:0013000000000000
#06418:00130000
#06415:0000001300000000
#06416:00000000000000000000001300000000
#00312:13
#0031b:13
#00918:00000000000013000000001300130000
#00912:2313000013000000
#0091b:23131300
#00915:0000130000130013
#0261b:00000000000000000013000000000013
#02618:00000000130000130000000000130000
#02615:0013000013000013
#02612:00000000000013000000001300000000
#01912:00000000130013000000000000130013
#01918:00130000001300130000000000000000
#01915:0013000013130000
#0191b:00000013000000000013001300000000
#02916:2300000000000013
#02918:00000000000000000000131300000000
#02912:0013
#0291b:2300000013000013
#02910:41
#03216:0000130000330000
#0321b:0000130000330000
#03212:0000001300000000
#03217:0000001300000000
#03215:0000000000000013
#03218:00000000000000000000000000000013
#03317:0000000000000013
#03312:2300000013000013
#03315:00000000000000000000131300000000
#0331b:00231300
#0361b:0000001300001300
#03617:00130000
#03612:00130013
#03616:0000001300000000
#03618:0000000013130013
#03615:00000000000000000013001300000013
#04217:0023000000000013
#04216:0000000000130000
#04214:00000013
#04212:0013000000000013
#0421b:0000232300130000
#04219:00000013
#04215:00330000
#0101b:0013000013000000
#01018:2300130000130013
#01015:00000000000013000000001300130000
#01012:23131300
#0131b:13000000130013001300000000130013
#01318:00000000000000000000001300000000
#01312:00001300000000001300000000130000
#01316:13
#01315:00000000000000000000130000000013
#01317:0013000000000000
#01310:41
#01418:00130013000000130000130000000000
#01412:00001300000013000000001300000000
#01415:00131300
#0141b:00000000001300000000000000130000
#0161b:00001300000013000000001300000000
#0161b:0000001300000000
#01618:00131300
#01615:00130013000000130000000000000000
#01615:00000000000000130000000000000000
#01612:00000000001300000013000000000000
#01712:13000000000013000000001300000000
#0171b:13000000000000130000000000000000
#01715:00000000130000001300000000130013
#01718:00001300000000000013000000001300
#01812:00131300
#0181b:00000000001300000000001300000013
#01815:00000000000013000000130000130000
#01818:00001300000000130013000000000000
#02012:0000130000130000
#02015:0000001300000000
#02018:00000000000000130000000000000000
#02017:0000130000130000
#02019:00000013
#0201b:0013000000000013
#02014:00000013
#02016:0000000000000013
#02517:00000000000000000000000000130013
#02518:0013000013000000
#02515:00000000130000130000000000000000
#0251b:00000000000013000000001300000000
#02512:00000000000000000013000000001300
#0281a:00140000
#02816:0014
#02812:26000014
#02818:26
#0311b:0000130000000013
#03117:00000013
#03112:00000013
#03116:0000130000000013
#0431b:0000000000130000
#04316:0000000000130000
#0431f:0011
#04412:0000000013130000
#04417:0000000013130000
#06212:0000000013000013
#0621b:0013000000000000
#06218:00130000
#06215:0000001300000000
#06216:00000000000000000000001300000000
#06210:41
#05118:1313130000000000
#05115:00130013000000000000000000000000
#05116:0023
#05117:00000023
#0511b:0023
#0511f:0021
#0701b:00000000000000000000333300000013
#07018:00001300000000000000000000130000
#07015:0000000013000013
#07012:24000000333300000000000024000000
#0701a:0000002400000000
#00419:00000014000000000000000000000000
#0041a:0000001400000000
#00412:0000001400000000
#00413:00000014000000000000000000000000
#00415:0000000000130000
#00418:0000000000230000
#01118:00000000000013000000001300130000
#01112:0013000013000000
#0111b:23131300
#01115:2300130000130013
#00812:0013000023000000
#00815:23000000130000000000130000130013
#00818:0000001300000013
#0081b:23000000130000002300001300000000
#01215:00130000001300000000000000000000
#01218:0013130000000000
#01212:00000024000000002400000000000000
#0121a:2400002424000000
#0211b:0000000000131300
#02116:0000000000131300
#02112:0000131300000013
#02117:0000000000000013
#02110:41
#02212:0000000000131300
#02217:0000000000131300
#0221b:0000131300000013
#02216:0000000000000013
#02312:00001313000000000000230000000000
#02317:00000013000000000000000000000000
#0231b:0013
#02314:00000023
#02316:0000000000000023
#02417:0023000000130000
#02419:00230013
#02412:0000000000130000
#02414:00000013
#02416:0000000000000013
#0241b:0000002300000013
#03017:0013000000001300
#0301b:0000001300000000
#03012:0013000000001300
#03416:0013000000001300
#03415:0000001300000000
#0341b:00000000000000130000000013000000
#03417:00130000
#03712:1300130013130000
#0371b:1300000000001313
#03717:0000000000130000
#03715:00000033
#0381b:0013000000001300
#03812:0000131300000000
#03817:0000000000130013
#03816:0013000000000000
#03818:00330000
#04514:0000000013130000
#04519:0000000013130000
#04612:1313000024000000
#0461b:1313000000000000
#0461a:0024
#04715:13
#04718:13
#0471a:0024
#04712:0024
#05015:0000000000130000
#05018:00000000000000000000002400130000
#05014:2400000000000024
#0501a:2424
#05012:0024
#02716:0013
#02712:13003300330033000033333333333333
#0631b:1300000013000013
#06312:0013000000000000
#06315:00130000
#06318:0000001300000000
#06317:00000000000000000000001300000000
#06512:2413
#06518:00001300000024000013000000001300
#06515:00000000001300000000130000130013
#0651b:00000000000000000000001300000000
#06514:00000024000000000000000000000000
#0651a:24
#06615:0000001300000000
#0661b:2313000023000000
#06616:00000000000000000000001400001400
#0661a:0000000000140000
#06612:23000000230000002300000000140000
#06618:00230000
#06918:00130000001300130000130000000013
#06915:00001300130000000000001300001300
#06912:2400002413000000
#0691b:00000000000000000000000000130000
#0691a:00000024000000000000000000000000
#01512:13000000130013001300000000130013
#01515:00000000000000000000001300000000
#0151b:00001300000000001300000000130000
#01517:13
#01518:00000000000000000000130000000013
#01516:0013000000000000
#03512:0000130000000013
#03516:00000013
#0351b:00000013
#03517:0000130000000013
#03914:0013000000000000
#03913:00130000
#03912:0000001300130000
#03916:0000000013000013
#03917:00000000000000000000001300000000
#0401b:00001300000000002300000000000013
#04016:0013000023000013
#04014:00130000
#04019:00130000
#04017:0000001300131300
#04012:00000000000013000000001300000000
#04116:1300000000230000
#0411b:0013000000130000
#04118:00130033
#04115:0000001300000000
#04112:0000000013002323
#04110:41
#05216:0000001300001300
#05217:0000000000130000
#05212:00000000000000000000000000000013
#0521b:00001313000013000000000000000000
#05215:13
#05218:13
#05210:00000041
#05512:00131300
#05515:1313001300000000
#05518:00130013000000130000000000000000
#0551b:00131313
#05416:0000001300001300
#0541b:0000001300001300
#05417:0000130000000013
#05412:0000130000000013
#0561b:1313000000002323
#05612:0000232300130000
#05616:0023000000000000
#05617:0000000000230000
#05618:00330000
#05615:00000033
#05317:0000130000000023
#05312:0000130000000023
#05316:0000002300001300
#0531b:0000002300001300
#06116:0000001300000000
#06117:0013000000000000
#06119:00130000
#06112:0013000000000000
#06114:00130000
#0611b:0000001300000000
#05716:0013001300000000
#05712:00130000
#05719:0000000000130000
#0571a:00000013
#0571b:0000000000000013
#05817:1300001300130000
#0581b:0013000000000013
#05816:00000013000000000000000000001300
#05812:0000000000130000
#05819:00000013
#05814:00000013
#05916:0013130000000000
#0591b:00000013000000000000000000000000
#05917:2300001313000000
#05912:23000000000000130000130000000000
#05915:00000013
#05918:0000000000000013
#0601b:1300232300130000
#06012:0013000000002323
#06017:0023000000000000
#06016:0000000000230000
#06015:00330000
#06018:00000033
#06718:0000001300000000
#06712:2313000023140000
#06716:00000000000000000000001400001400
#0671a:00000000000000000000000000140000
#0671b:23232300
#06715:00230000
#06815:0000001300000000
#0681b:2313000023000000
#06816:00000000000000000000001400001400
#0681a:0000000000140000
#06812:23000000230000002300000000140000
#06818:00230000
#07217:0000000000000000000000000000001300000000000000000000000000000000
#0071b:00001300000000001300333300330000
#00712:23000000130000001300001300001300
#00718:23130000
#00715:0000001300000000
#00612:00001300000000001300333300330000
#0061b:23000000130000001300001300001300
#00618:0000001300000000
#00615:23130000
#0051b:00001300000000001300333300330000
#00512:23000000130000001300001300001300
#00518:00130000
#00515:0000001300000000
#04819:0024
#04813:0024
#04912:0024
#04918:0024
#06452:1313
#00352:53
#0035b:63
#01952:00000000000000000000000000000053
#0195b:00000000000000000000006300000000
#01957:00000000000000000000000000130000
#02956:5300000000000063
#0295b:63
#02952:00135300
#02957:00130000
#02955:00000000000000000000001300000000
#03357:0000000000000053
#0335b:00136300
#03352:53
#03356:00130000
#03358:00000000000000000000001300000000
#04257:0000000000000053
#04252:0053000000000053
#04256:0000001300000000
#0165b:00000000000000000000001300000000
#01652:00000000000000000053000000000000
#01755:00000000000000000000000000000053
#01758:00000000000000000053000000000000
#01752:00000000000000000000001300000000
#0175b:00000000000000000000001300000000
#0205b:0000000000000063
#0315b:0000630000000053
#03156:0000630000000053
#03152:0000001300000000
#03157:0000001300000000
#0435b:0000000013130000
#04356:0000000013130000
#04452:0000000013130000
#04457:0000000013130000
#06252:1313
#06257:13
#0705b:00000000000000000000000000000053
#07052:34000034
#0705a:0000004400000000
#00459:00000044000000000000000000000000
#0045a:0000004400000000
#00452:0000003400000000
#00453:00000034000000000000000000000000
#00458:4400000000630000
#00454:34
#01352:0053000000000000
#0135b:0053
#01355:00000000000000000000000000000053
#0225b:0000001300000063
#02256:0000001300000000
#02352:00000053000000000000000000000000
#0235b:0000000000000013
#0255b:00000000000000000000001300000000
#02556:00000000000000000000001300000000
#02558:0053000000000000
#02555:00530000
#02552:00000000000000000053000000000000
#02557:00000000000000000000000000000053
#02652:00000000000000000000001300000000
#02657:00000000000000000000001300000000
#02655:0053000000000000
#02658:00530000
#0265b:00000000000000000053000000000000
#0305b:0000001300000013
#03056:0000001300000013
#03052:0053000000005300
#03057:00000053
#0345b:00000000000000130000000063000000
#03456:0053000000006300
#03452:0000000000000013
#03457:0000000000000013
#03656:0000001300000000
#0365b:0000001300000000
#03752:0000000000530000
#0375b:5300000000000013
#03756:0000000000000013
#0385b:0063000000000000
#03852:0000001300000000
#03857:0000001300000053
#04554:0000000013130000
#04559:0000000013130000
#04652:1313000034000000
#0465b:1313000000000000
#0465a:0044
#04755:53
#04758:53
#0475a:0014
#04752:0014
#05158:00630000
#05156:0063
#05157:00000013
#05152:00000013
#0515b:0013
#02756:0023
#02752:63
#0635b:1313
#04859:0014
#04853:0014
#05058:00000000000000000000004400000000
#05054:3400000000000034
#0505a:3444
#05052:0034
#04952:0044
#04958:0044
#01252:0014
#0125a:0014
#02157:0000001300000000
#02152:0000001300000053
#01455:00000000000000005300000000130000
#01452:00000000000000000000005300000000
#0145b:00000000000000000000000000130000
#01858:00005300000000000000000000130000
#0185b:00000000000000000000005300000000
#01855:00000000000000000000000000130000
#02456:0000001300000053
#01552:0063
#0155b:0063000000000000
#01558:00000000000000000000000000000063
#03256:00000000000000000000001300000000
#0325b:00000000000000000000001300000000
#03252:0000005300000000
#03257:0000005300000000
#03552:0000530000000063
#03557:0000530000000063
#0355b:0000001300000000
#03556:0000001300000000
#03957:00000000000000000000005300000000
#04057:00000013
#04156:13
#0415b:0000000000630000
#04157:0000000000000013
#05256:0000006300000000
#05257:0000000000630000
#05252:00000013000000000000000000000013
#05255:53
#05457:0000000000000013
#05452:0000000000000013
#0545b:0000005300000000
#05456:0000005300000000
#0565b:0063000000000000
#05652:0000000000530000
#05657:0000001300000000
#05656:0000000000000013
#05357:0000530000000013
#05352:0000530000000013
#05356:0000001300006300
#0535b:0000001300006300
#05552:0063
#06156:0000006300000000
#0615b:0000006300000000
#05756:0000006300000000
#05856:00000063000000000000000000000000
#05956:00130000
#05957:0013
#06052:0053000000000000
#0605b:0000000000630000
#06056:0000001300000000
#06057:0000000000000013
#0655b:00000000000000000000005300000000
#0085b:00000000000000000000005300000000
#06952:0053
#06656:00000000000000000000001400001400
#06756:00000000000000000000001400001400
#06856:00000000000000000000001400001400
#07257:0000000000000000000000000000002300000000000000000000000000000000
#0075b:0063
#00652:0053
#0055b:0063
#02852:16
#02858:16
#003320:13
#004340:24
#0033b1:13
#004381:24
#004381:0000000000130000
#0053b1:23
#0053b1:00000000000000001300333300330000
#005371:0000000000000023
#006321:00000000000000001300333300330000
#006361:0000000000000023
#0073b1:00000000000000001300333300330000
#007371:0000000000000023
#0083b1:00000000000000000000001300000000
#008381:00000000000000000000000000230000
#013321:0013000000000000
#013361:0000002300000000
#0133b1:0013
#013381:0000000000230000
#013351:00000000000000000000000000000013
#014321:00230000000000000000000000000000
#014351:0013
#014321:0000000000230000
#014321:00000000000000000000001300000000
#014351:00000000000000000000000000230000
#0153b1:0013000000000000
#015371:0000002300000000
#015321:0013
#015351:0000000000230000
#015381:00000000000000000000000000000013
#0163b1:00230000000000000000000000000000
#016321:00000000000000000013000000000000
#016361:00000000000000000000002300000000
#017381:00000000000000000013000000000000
#0173b1:00000000000000000000002300000000
#017351:00000000000000000000000000000013
#018321:0023000000000000
#018380:0013000000000000
#0183b0:00230000
#0183b0:00000000000000000000001300000000
#018380:00000000000000000000000000230000
#018320:00000000000000000000000000000013
#019320:00230000000000000000000000000000
#0193b0:00000000000000000000001300000000
#019370:00000000000000000000000000230000
#019320:00000000000000000000000000000013
#020360:0023000000000000
#0203b0:0000000000000013
#021370:0000332300000000
#021320:0000000000000013
#022360:0000332300000000
#0223b0:0000000000000013
#023370:0023000000000000
#023320:00000013000000000000000000000000
#023360:0023
#023370:0000000000130000
#023390:00000033
#0233b0:0000000000000023
#024320:0013000000000000
#024340:00330000
#024360:0000002300000000
#024360:0000000000000013
#025320:0023000000000000
#025381:0013000000000000
#0253b1:00230000
#025350:00130000
#025320:0000002300000000
#025320:00000000000000000013000000000000
#025360:00000000000000000000002300000000
#025370:00000000000000000000000000000013
#0263b0:0023000000000000
#026351:0013000000000000
#026321:00230000
#026380:00130000
#0263b0:0000002300000000
#0263b0:00000000000000000013000000000000
#026370:00000000000000000000002300000000
#027320:13003300330033000033333333333333
#027360:0033
#028320:26
#029360:13
#029320:00230000
#0293b1:13
#029371:00230000
#029321:0013
#029351:00000000000000000000332300000000
#029361:0000000000000013
#030321:0033000000000000
#030361:0000002300000000
#030371:00000013
#0303b1:0000000000000023
#030320:00000013
#030360:0000000000000023
#031360:00130000
#031320:0000002300000000
#0313b1:00130000
#031371:0000002300000000
#0313b1:0000000000000013
#032371:0023000000000000
#031360:0000000000000013
#032320:0023000000000000
#032370:0000001300000000
#0323b0:00000000000000000000332300000000
#032321:0000001300000000
#032361:00000000000000000000332300000000
#033321:13
#033361:00230000
#0333b1:0013
#033381:00000000000000000000332300000000
#033371:0000000000000013
#0343b1:0023000000000000
#034360:0013000000000000
#034320:00230000
#034360:00000013
#034320:0000000000000023
#0343b1:00000013
#034371:0000000000000023
#035371:00130000
#0353b1:0000002300000000
#035320:00130000
#035360:0000002300000000
#035320:0000000000000013
#036360:0023000000000000
#035371:0000000000000013
#0363b1:0023000000000000
#0373b1:13
#037371:0023
#037321:0000000000130000
#037351:00000033
#037361:0000000000000023
#0383b1:0013000000000000
#038381:00330000
#038371:0000002300000000
#038321:0000000000130023
#038361:00000033
#038370:0000000000000013
#0393b0:0023
#039370:00000000000000000000001300000000
#0393b0:0000000000000023
#0413b0:0000000000130000
#041380:00000033
#041370:0000000000000023
#042320:0013000000000000
#042350:00330000
#042360:0000002300000000
#042370:0000000000000013
#0433b0:0023
#042321:0000000000000013
#043361:0023
#046381:00000013
#047381:33
#0473b1:00230000
#046350:00000013
#047350:33
#047320:00230000
#051380:00130000
#0513b0:0023
#051361:0013
#051321:00000023
#052351:13
#052321:00003323000000000000000000000000
#052361:0000001300000000
#052321:0000000000230000
#052370:0000000000130000
#0523b0:00000023
#052380:00000000000000000000000000001323
#053370:00130000
#0533b0:0000002300000000
#053321:00130000
#053361:0000002300000000
#053361:00000013
#053321:0000000000000023
#0533b0:00000013
#053370:0000000000000023
#0543b0:0000001300000000
#054370:0000000000230000
#054361:0000001300000000
#054321:0000000000230000
#055321:0013
#056361:23
#0563b1:0013000000000000
#056381:00330000
#056371:0000002300000000
#056321:0000000000130000
#056351:00000033
#056361:0000000000000023
#0573b1:0013002300000000
#057371:00330000
#057360:0000001300000000
#058320:23
#058360:00000013000000000000000000000000
#058320:0000002300000000
#060320:0013000000000000
#060350:00330000
#060360:0000002300000000
#0603b0:0000000000130000
#060380:00000033
#060370:0000000000000023
#061360:0000001300000000
#062320:23
#0613b1:0000001300000000
#062371:23
#062371:0000000013000023
#0623b1:00000000000000000000003300000000
#063361:0000000013000023
#063321:00000000000000000000003300000000
#064371:0000000013000023
#0643b1:00000000000000000000003300000000
#0653b1:00000000000000000000001300000000
#065381:00000000000000000000000000230000
#069321:0013
#069351:0000000000230000
#070321:00000013333300000000000000000000
#070361:0000002300000000
#0703b1:00000000000000000013333300000000
#070371:00000023
#0703b1:00000000000000000000000000000013
#072371:0000000000000000000000000000005300000000000000000000000000000000
#0743b1:23
