This file was generated by Ched 2.7.0.0.
#TITLE ""
#ARTIST ""
#DESIGNER ""
#DIFFICULTY 0
#PLAYLEVEL
#SONGID ""
#WAVE ""
#WAVEOFFSET 0
#JACKET ""
#REQUEST "ticks_per_beat 480"
#00002: 4
#BPM01: 130
#00008: 01
#TIL00: ""
#VOLUME: ""
#HISPEED 00
#MEASUREHS 00
#03812:0014000000000000
#0381a:0000001400140000
#03816:00140000
#03814:00000014
#03818:0000000000000014
#04519:0000000014140000
#04513:0000000014140000
#0461a:1414000024000000
#04612:1414000024000000
#0631a:14
#06314:0014
#06318:0000000000000013
#06315:00000000000000000000000000000013
#0641a:14
#06412:0014
#00318:14
#0051b:0000001300000000
#00518:0013000000000000
#00515:00130000
#00512:0014
#00516:00000000000000000000001400000000
#0051a:0000000000000014
#02618:00000000000000130000000000130013
#0261b:00130000
#02615:0000001313000013
#02612:00000000000000000033000000000000
#01918:00333333000000000000000000000013
#01915:00130000
#01912:00000000003333333333330000000000
#02912:0013
#0291b:0000000000000013
#02918:0000000000130000
#02915:00000000000000000000001300000000
#0291a:24
#02914:24
#02910:41
#03012:00000013
#03018:0000000000000013
#03017:0013000000000000
#03115:00130013
#0311b:0000001300000000
#03118:0000000000000013
#03215:00130000
#03212:0000000000000013
#0321b:0000001300000000
#03218:0000000000000013
#0331b:0013
#03315:0000000000130013
#03318:00000000000000000000001300000000
#03618:00130013
#0361b:0000000000000013
#03612:0000001300001300
#03615:0000000000000013
#0371a:0000000000140000
#03716:00000014
#03712:0000000000000014
#04212:0000002400140014
#04218:00000014
#0421a:0024000000000000
#04216:00240000
#0041a:0000001400000000
#00412:00000014000000000000240000000000
#00615:13
#0061b:0013000000000000
#00612:00131400
#00618:0000001300000000
#00616:00000000000000000000001400000000
#0061a:0000000000000014
#0071b:0000001300000000
#00718:0013000000000000
#00715:00130000
#00712:1314
#00716:00000000000000000000001400000000
#0071a:0000000000000014
#00815:13
#0081b:0013000000000000
#00812:00132400
#00818:0000001300000000
#00912:0000001300000014
#00915:0013000000000000
#00918:00130000
#0091a:0014
#00916:00000000000000000000001400000000
#0091b:23
#01012:0013000000000014
#0101b:00130000
#01015:0000001300000000
#0101a:0014
#01016:00000000000000000000001400000000
#01018:23
#01112:0000001300000014
#01115:0013000000000000
#01118:00130000
#0111a:0014
#01116:00000000000000000000001400000000
#0111b:23
#01312:1313
#01318:00001300000013000000000000130000
#01315:00000000130000000000001300000013
#0131b:0000000000130000
#01310:41
#01418:0013
#01415:0000000000130000
#01412:00333333333300000000000000000000
#01512:1313
#01518:00001300000013000000000000130000
#01515:00000000130000000000001300000013
#0151b:0000000000130000
#01712:13
#01715:00001300000000130000000000130013
#01718:0000131313000013
#0171b:00000000000000000033000000000000
#01818:00000000130000130000130000000000
#01815:0000001300000000
#01812:0013
#0181b:00000000000000000000000000000013
#02015:00000000130000130000000000000000
#02018:0000001300000000
#0201a:0000000000140000
#02016:00000014
#02012:0000000000000014
#02112:0000000000140000
#02116:00000014
#0211a:0000000000000014
#02110:41
#0221a:0000000000140000
#02216:00000014
#02212:0000000000000014
#02316:00000014000000000000000000000000
#0231b:0000000000230023
#02315:00000023
#0241a:0000000000140000
#02416:00000014
#02412:0023002300000014
#02418:00230000
#0251b:00130000
#02515:0000001313000013
#02518:00000000000000130000000000130013
#02512:00000000000000000033000000000000
#02812:00140000
#0281a:0014
#02816:00000014
#02818:23
#03418:00000000130000130000000000000000
#03415:0000001300000013
#03518:00130013
#03512:0000001300000000
#03515:0000000000000013
#04018:00000000000000000000003300001300
#0431a:0000000000140000
#04314:0000000000140000
#0431f:0011
#04412:0000000014140000
#04418:0000000014140000
#06212:0014
#06210:41
#05115:1313000000000000
#05118:00130013000000000000000000000000
#05112:0024
#0511a:00000024
#0511f:0021
#05212:13
#05218:0013001300000013
#05215:00000013000000000000000013000013
#05210:00000041
#05515:00130000
#05512:0000001300000000
#0551b:00130000
#05518:0000001300000000
#05315:00000013
#05318:0000002300000000
#0531b:0000000000000023
#05415:00130013
#05418:0000001300000000
#0541b:0000000000000013
#06518:00000000000000001300001300000000
#06515:0000000000130000
#0651a:24
#06516:00000024000000000000000000000000
#06512:0000002400000000
#0661b:0000001300000000
#06618:0013000000000000
#06616:00000000000000000000001400000000
#0661a:0000000000000014
#06612:2424
#06615:00230000
#0671b:0013000000000000
#06718:0000001300000000
#06716:00000000000000000000001400000000
#0671a:0000000000000014
#06715:23
#06712:00232400
#0681b:0000001300000000
#06818:0013000000000000
#06816:00000000000000000000001400000000
#0681a:0000000000000014
#06812:2324
#06815:00230000
#07018:00001300000000000013000000130000
#07015:00000013000000001300000000001300
#0701b:00000000000000000000000000000013
#07012:2400002400002400
#0701a:2400002400000000
#0271b:0013
#02718:33003300330033000033333333333333
#01618:00000000133333333300000000000000
#01612:00333333000000000000000000000000
#05712:0014000000000000
#05718:00140000
#05714:0000001400000000
#0611a:0014001400000000
#06114:00140000
#05915:00000033000013000000000000000000
#0121a:2424
#01216:00000024000000000000000000000000
#01212:0000002400000000
#04819:0024
#04813:0024
#0471a:0024
#04712:0024
#04912:0024
#04918:0024
#0501a:24
#05014:24
#05012:0024
#05018:0024
#06912:2424
#06916:00000024000000000000000000000000
#0691a:0000002400000000
#04112:0000000000240000
#04116:00000024
#0411a:0000000000000024
#04110:41
#05612:0024000000000024
#05616:00240024
#0561a:0000002400240000
#0601a:0024000000000024
#06016:00240024
#06012:0000002400240000
#0635a:14
#06354:0014
#0645a:14
#06452:0014
#00358:54
#02658:00000000000000000000000000000053
#02655:0053
#01958:00000000000000000000000000000053
#01955:00530000
#0295b:0000000000000063
#02952:00140000
#02958:00140000
#03058:0000000000000013
#0305b:0000001300000000
#03057:0053000000000000
#0315b:0000001300000000
#03158:0000000000000063
#03252:0000000000000053
#0325b:0000005300000000
#03258:0000000000130053
#03355:0000130000000063
#0335b:00130000
#0365b:0000000000000053
#03652:0000006300000000
#03655:0000000000000053
#04252:0000000000000054
#0045a:1400001400000000
#00452:00000014000000000000000000000000
#01755:00000000000000000000000000000053
#01758:0063
#02052:0000000000000054
#0215a:0000000000000064
#02252:0000000000000054
#02356:00000024000000000000000000000000
#02452:0000000000000054
#03455:0000000000000013
#03458:00000000000000530000000000000000
#03552:0000001300000000
#03555:0000000000000053
#03858:0000000000000014
#04058:0000000000000063
#06252:0014
#06258:14
#05258:0000005300000000
#05255:00000000000000000000000000000053
#05552:0000006300000000
#05558:0000006300000000
#05458:0000006300000000
#0545b:0000000000000053
#0705b:00000000000000000000000000000053
#01555:00000000000000000000000000000053
#01355:00000000000000000000000000000053
#0185b:00000000000000000000000000000053
#02555:0053
#02558:00000000000000000000000000000063
#0465a:0014
#04652:0014
#0125a:0014
#04859:0014
#04853:0014
#0475a:0014
#04752:0014
#06652:14
#04952:0014
#04958:0014
#0505a:14
#05054:14
#06952:00000014
#0275b:0023
#01658:00530000
#0165b:00000000000000000000001300000000
#05152:0014
#0515a:00000014
#05754:0000001400000000
#0615a:0000006400000000
#05955:0000005300000000
#00852:0054
#02858:13
#05358:0000001300000000
#0535b:0000000000000013
#003380:14
#0043a0:24
#004320:0000000000140000
#005320:24
#008320:0014
#008360:00000000000000000000003400002400
#013350:00000000000000000000000000000013
#014320:00333333333323000000000000000000
#0143b0:00000000000000000000001300230000
#015350:00000000000000000000000000000013
#016320:00333333230000000000000000000000
#016381:00000000133333333300000000000000
#0163b1:00000000000000000033002300000000
#017381:0013
#0173b1:00000000000000000033002300000000
#017351:00000000000000000000000000000013
#018321:0023000000000000
#018351:00000000000000000000001300230000
#0183b1:00000000000000000000000000000013
#019381:00333333230000000000000000000000
#019350:00130000
#019320:00000000003333333333333300230000
#019380:00000000000000000000000000000013
#0203b0:0023000000000000
#020320:0000000000000014
#021360:0000342400000000
#0213a0:0000000000000014
#022360:0000342400000000
#022320:0000000000000014
#023360:00003434000000000000000000000000
#023320:0024
#024320:0000000000000014
#025340:0024000000000000
#025350:0013
#025320:00000000000000000033002300000000
#025380:00000000000000000000000000000013
#0263b0:0023000000000000
#026350:0013
#026320:00000000000000000033002300000000
#026380:00000000000000000000000000000013
#027380:33003300330033000033333333333333
#0273b0:0033
#028380:23
#029340:14
#029320:00240000
#0293a1:14
#029381:00240000
#0293b1:0000000000000013
#030371:0033000000000000
#0303b1:0000002300000000
#031381:0000000000000013
#0323b1:0023000000000000
#0323b1:0000001300000000
#032381:0000000000230000
#032321:0000000000000013
#033351:00230000
#032380:0000000000000013
#0333b0:00230000
#033350:0000000000000013
#034320:0023000000000000
#034380:00000000000000130000000000000000
#0343b0:00000023
#035350:0000000000000013
#036320:0023000000000000
#036320:0000001300000000
#036350:0000000000230000
#0363b0:0000000000000013
#037380:0023
#036351:0000000000000013
#037321:0023
#039351:00001300000033000000333300002300
#039321:00333300
#040381:00001300000033000000333300003300
#0403b1:00333333
#0413b1:0023
#042321:0000000000000014
#043341:0024
#046381:00000014
#047381:34
#0473a1:00342400
#046340:00000014
#047340:34
#047320:00342400
#051320:00142400
#052380:0000001300000000
#0523b0:0000000000230000
#052350:00000000000000000000000000000013
#053320:00230000
#054380:0000001300000000
#0543b0:0000000000230000
#0543b0:0000000000000013
#055380:0023000000000000
#055320:0000001300000000
#056350:23
#055381:0000001300000000
#0563b1:23
#057381:0000000000130033
#0573b1:00000033
#0583b1:33
#058381:00003333000023000000000000000000
#058351:0000000000130033
#058321:00000033
#059321:33330000
#059351:00003333000033000000000000000000
#060321:23
#0613a1:0000001400000000
#062381:24
#065321:00000000000000000000000000143434
#066321:24
#069321:00000000000000001400343424000000
#0703b1:00000000000000000000000000000013
#074371:23
