This file was generated by Ched 2.7.0.0.
#TITLE ""
#ARTIST ""
#DESIGNER ""
#DIFFICULTY 0
#PLAYLEVEL
#SONGID ""
#WAVE ""
#WAVEOFFSET 0
#JACKET ""
#REQUEST "ticks_per_beat 480"
#00002: 4
#BPM01: 130
#00008: 01
#TIL00: ""
#VOLUME: ""
#HISPEED 00
#MEASUREHS 00
#00312:14
#0031a:14
#00318:0014
#00314:0014
#00515:00000000000000130000000000000000
#0051b:0013000013130000
#00512:23000000130000001300000000130000
#00516:00001300000000000000001300000000
#00517:0000130000000013
#00518:0000001300000000
#01917:00000000000000000000001300000013
#0191b:00130000000000130013000000000000
#01915:00001300001300000000000000000000
#01918:00000013000013000000000000000000
#01916:00000000000000001300000000130000
#01912:00000000130000000000130000000013
#03712:13000000000000001300000000001313
#0371b:13000000000000000000131300000000
#03718:00130000
#03719:0013000000000000
#03714:0000001300000000
#03715:00000016
#0131a:14
#01316:00000000130000000000000000130013
#0131b:00000000130000001300000000000013
#01312:1413000013130000
#01317:00001300000013000000131300000000
#01310:41
#01418:00130013001300000000000000000000
#01415:0013000000000000
#01412:0013
#0141b:00000000000000130000130000000000
#01416:00000000000000000000001300000000
#01417:00000000000000000000000000130000
#01618:0013000013000000
#01612:00000000000000130013000000001400
#01615:00130013001300000000000000000000
#0161a:00000000000000000000001400140000
#01616:00000000000000000000000014000014
#01712:13001300000013000000001300000013
#0171b:13000000130000130000000000000013
#01715:0000000013000013
#01717:0013000000000000
#01716:00130000
#01718:00000000000000000013000000130000
#01812:00131300
#0181b:00001300001300000000001300000000
#01815:00000000000013000000130000130013
#01818:00000000000000130000000000001300
#02015:00000000000000130000131300001300
#02016:00000013000000000000000000000000
#0201b:00131300
#02018:00000000000013000013000013130013
#02012:0013
#02518:00001300000013001300130000130000
#02515:00000000130000130000001300001300
#0251b:13000000000000000013000000000013
#02512:13000013
#02615:00001300000013001300130000130000
#02618:00000000130000130000001300001300
#0261b:13000013
#02612:13000000000000000013000000000013
#0281a:00140000
#02816:0018
#02812:2300001c
#0281b:23
#0311b:0000130013000013
#03117:13000013
#03112:13000013
#03116:0000130013000013
#03114:0018000000180000
#05118:00130000000000000000000000000000
#05115:0013000000000000
#05112:00000013000000001300130000000000
#0511b:13132300
#05114:0000001300000000
#05119:0000001300000000
#05117:0000000000130000
#05116:00000023
#0511f:0021
#00418:000000000000000000140000000000000000160000000000000013000000000000000000000000000000000000000000
#00412:0000001613000000
#00414:00000014000000000000000000000000
#00415:000000000000001300000000
#0041b:0000000000230000
#00812:0013000023000000
#00815:23000000130000130000130000130013
#00818:00001300000013002600001300001300
#0081b:23130000
#00916:00001300000000131300000000001300
#0091b:00001300000013001300000000130000
#00912:2300130000130000
#00917:00000000130000000000001300000000
#00918:26
#0221b:0000000000130013
#02216:00140000000000000000000014001400
#02217:0000131300000000
#02212:0000000000130000
#02316:00001414140013001400130000000000
#02312:13130000
#02317:1300000000002323
#0231b:0000000000230000
#02116:0014131300001414
#02112:1300000000130013
#0211b:1300000000130000
#02110:41
#03017:00000013
#03012:00140013
#03016:0014000000000000
#0301a:14
#03212:13132413
#0321b:0000001300001300
#03216:0013001300000000
#03218:00000000000000000000130000000013
#03215:00000000000000000000001300001300
#03217:13130000
#0321a:0024
#0361b:13000000000013001300001300000000
#03615:00000000000000000013000000000013
#03618:0000000000130013
#03617:0013130000000000
#03612:00000013000013001300000016000000
#03616:13
#04716:12
#04718:12
#04712:000000000000000000000000143434343434343434343434
#0471a:0024
#0471b:003232323232000000000000000000000000000000000000
#04713:003232323232000000000000000000000000000000000000
#05015:00000000000000000000132700002700
#05019:00000000000000000000000000130000
#0501a:143434343434003434343434240000000000000000000000
#05013:00130000
#05012:2424
#0621b:00001300000000000000001300000000
#06218:0012130000000000
#06215:0000121300000000
#06212:000000121c000013
#06216:00000000000000000000001400001400
#06210:41
#06312:1c001300000000001c00001300000000
#06315:00130000
#06318:0000001300000000
#0631b:00000000000000000000000000001313
#06316:00001200000000000000001400001400
#06319:00120000
#0631c:0000001200000000
#0641b:00001300000000000000001300000000
#06418:0012130000000000
#06415:0000121300000000
#06412:1c0000121c000013
#06416:00000000000000000000001400001400
#06512:2413
#06515:00000026001326000013000000000000
#06518:0013000000130000
#06516:00000000000000000000000000141414
#0651a:24
#07018:2600000000000000160000000000000016000000000000002600001300000000
#07015:00000000000000000000000000131300
#0701b:00000013001300000000000000000000
#07012:00001600000026000013161300000000
#01214:00000000000000000000001200120000
#0121a:00000000000000000000001200000000
#01216:0000000012120012
#01218:26000000000000000012000000000012
#01215:00131326000000000000000000000000
#01212:0000000013132c000000000000000000
#0241b:13
#02417:0013000000000000
#0241a:00000000000000000000001200000000
#02414:00000012
#02418:0000000012120012
#02416:00000000230023000012000000000012
#02412:0023000000000000
#02715:19001300000000000013001300001300
#0271b:0013000013001300
#02712:0000191313001300
#02718:00000000000013000000130000130013
#02912:0013000013000013
#02917:0013000013000000
#0291b:23000000000000000000131300000000
#02916:23
#02910:41
#03512:0000130013000013
#03517:0000130013000013
#0351b:13000013
#03516:13000013
#03514:0018000000180000
#04015:00000000000000000000130000000013
#04018:00000000000000000000001300001300
#04012:00132413
#0401b:1300001300001300
#04016:1300001300000000
#04019:0013000000000000
#04014:0013000000000000
#04017:00130000
#0401a:0024
#04218:00140026001400140000000000000000
#04214:0014140000000000
#04216:0000000000140000
#04212:260000262c001414
#0421a:0000000000001414
#04314:00000014000000000000000000000000
#04318:00000014000000000000000000000000
#04312:0000000000141400
#0431a:00000000000000000000140014000014
#04316:00000000000000000000000000000014
#0431f:0011
#04416:00140000140000001400000000000000
#0441a:00001400001400000000140014000000
#04412:00000014000000000000140014000000
#06918:000000130000130000000000000000000000000000000000000000000000120000001200000000000000000000000000
#06912:2600000000000000002c00002c0000001200120000000000
#06916:000000000000000000000000000000000000000000120012
#0691c:000000000000000000000012
#0691b:00000000131300000000000000000000
#06915:00000026000000000000000000000000
#00615:0000001300000000
#00612:0013000013130000
#0061b:23000000130000001300000000130000
#00617:00001300000000000000001300000000
#00616:2300130000000013
#00618:00000000000000130000000000000000
#00715:00000000000000130000000000000000
#0071b:0013000013130000
#00712:23000000130000001300000000130000
#00716:00001300000000000000001300000000
#00717:2300130000000013
#00718:0000001300000000
#01017:00001300000000131300000000001300
#01012:23001300000013001300000000130000
#0101b:2300130000130000
#01016:00000000130000000000001300000000
#01116:00001300000000131300000000001300
#0111b:23001300000013001300000000130000
#01112:2300130000130000
#01117:00000000130000000000001300000000
#01512:14000000130000001300000000000013
#01517:00000000130000000000000000130013
#0151a:14
#0151b:0013000013130000
#01516:00001300000013000000131300000000
#03815:16000000000000130000000000001300
#0381b:00001300000000000000001300000000
#03818:00000013000000001600130000000000
#03812:00000000160013000000000019000013
#03915:19
#03912:00001300000000001300000000131300
#03917:0013000013000000
#03914:00130000
#03919:00130000
#03916:0000001300000000
#0391b:00000000000013000000131300000000
#0411b:13000000000000001300000000001313
#04112:13000000000000000000131300000000
#04115:00130016
#04114:0013000000000000
#04119:0000001300000000
#04110:41
#04512:1400130000141400
#04516:0000140000120000000000000000000014000000000000000000000000000000
#0451a:0014000000141400
#04518:00000012000013000000000000000000
#04515:00000000001300000000000000000000
#0451b:00000000000000130000000000000000
#04618:0016160026000000
#04612:0016160026000000
#04616:14
#04819:13
#0481a:000000000000000000000000143434343434343434343434
#04812:003434343434343434343434240000000000000000000000
#04914:13
#04912:000000000000000000000000143434343434003434343434
#0491a:003434343434343434343434240000000000130000000000
#0551b:1313
#05512:13000013000000001300000000000000
#05518:00130000160000130000000000000000
#05515:0013001300001300
#05514:0000000000130000
#05519:0000000000000013
#0561b:13000000000013130000000000001300
#05612:00001313190000000000130000000000
#05615:00000000000000001900001319000000
#05618:00000000000000000000000000000013
#05416:1300001300131300
#0541b:13000000000013000000001300001300
#05412:0000130013000013
#05417:00131300
#05414:0018000000000000
#05712:190000131c0000001c00000000001300
#05715:0013000000000000
#05718:0000001300000000
#0571b:00000000000000130000130000000000
#05716:0000000000130000
#05719:00000013
#05714:00000013
#05717:0000000000000013
#05918:00001300000000130000000013000000
#05915:00000013000013000000000000000000
#0591b:00131300
#05912:24131300
#05919:0000000000130000
#05914:0000000000000013
#0591a:24
#06015:00000000190000002913000000132913
#06018:0000000000131300
#06012:13000000000013130000002900000000
#0601b:00001313000000000000000000000000
#0581b:13000000001313000000000013000000
#05812:00001313000000001300000000001300
#05816:13000013
#05817:0000000013000013
#05814:0000000000130000
#05819:0000000000130000
#06116:0014000000000000
#06112:2c00141400000000
#0611a:0000141400000000
#06114:00000000000000000000001400000000
#06118:00000000000000000000001400000000
#06617:00001200120000121200000000000000
#06612:26001300000013002300000000130000
#0661b:2300230000130000
#06616:00000000000000000000001500000000
#06615:0000000000000015
#06717:00001200120000121200000000000000
#0671b:23001300000013002300000000130000
#06712:2300230000130000
#06715:00000000000000000000001500000000
#06716:0000000000000015
#06817:00001200120000121200000000000000
#06812:23001300000013002300000000130000
#0681b:2300230000130000
#06816:00000000000000000000001500000000
#06815:0000000000000015
#03316:0013000013000013
#0331b:1313000013000013
#03312:23000000000000000000131300000000
#03317:00230000
#03417:13130000
#03412:1300000000000000130000000000000000130000000000000000000000000000
#03416:00000000000013130000000013000000
#0341b:0000001300001300
#05217:13000000000013000000000000001313
#05212:1300001300000013
#0521b:00001313000000001300000013000000
#05216:00001313
#05210:00000041
#0531b:0013000000000000000000002300000000000000000000001300000000000000
#05317:0000130013000023
#05312:0000130013000023
#05316:0000002300001300
#05314:0000000000180000
#00352:54
#0035a:64
#00358:0024
#00354:0024
#01957:00000000000000000000005300000053
#01956:00000000000000000000000000130000
#0195b:00000000000000000000000000130000
#01952:00000000000000000000000000000053
#03752:5333
#0375b:43
#03758:00230000
#03755:00000036
#01752:00000000000000000000001300000053
#01757:0053000000000000
#01758:00000000000000000053000000000000
#0175b:00000000530000000000001300000000
#01852:0013
#0185b:00005300000000000000001300000000
#01855:00000000000000000000000000000053
#0315b:0000630000000053
#03156:00630000
#03152:0000001300000000
#03157:0000001300000000
#00458:00000044000046000000000000000000
#00452:3400003600000000
#00454:00000034000000000000000000000000
#0045b:0000000000630000
#0045a:44
#01352:0053000000000000
#01357:00000000000000000000005300000000
#01356:00000000530000000000000000130053
#0145b:0000000000130000
#01457:00000000000000000000000000130000
#01452:0053
#01456:00000000000000000000005300000000
#0225b:0000000000000063
#02256:00240000000000000000000000000000
#02252:0000001300000000
#02257:0000001300000000
#02356:0000002300630000
#02357:23
#02352:0000530000000013
#04756:52
#04758:52
#0475b:00130000
#04752:00135400
#0475a:0044
#02152:1300000000000053
#0215b:6300001300000000
#02156:0024001300000000
#0245b:1300001300000000
#02457:0053000000000000
#02952:0023000053000053
#02957:0023000000000000
#0295b:63000000430000000000001300000000
#02956:53000000430000000000001300000000
#03552:0000530000000063
#03557:00530000
#0355b:0000001300000000
#03556:0000001300000000
#04252:360000361c000054
#0425a:0000000000000054
#04258:00000046000000000000000000000000
#04354:00000024000000000000000000000000
#04358:00000024000000000000000000000000
#04352:0000000014343400
#0435a:0000000014444400
#04356:00000000000000000000000000000064
#04658:0046460046000000
#04652:0036360036000000
#04656:14
#05055:00000000000000000000004700003700
#05052:3434
#0505a:6444
#05053:00230000
#07058:46
#07052:0000003600000000
#03252:0034
#0325a:0044
#03257:23
#06555:00000036000046000000000000000000
#06552:34
#0655a:44
#00852:0013
#00858:0016
#00952:13
#00958:16
#00957:00000000000000000000004300000000
#00956:0000000000000033
#0405a:0044
#04052:00003413
#0405b:00000013
#0305b:0000004300000013
#03056:0054001400000013
#03052:00240053
#03057:00000053
#0305a:24
#02552:53
#02558:0053000000000000
#02555:00530000
#00556:00000000000000000000003300000000
#00557:0000000000000043
#00656:0000000000000033
#00657:00000000000000000000004300000000
#00756:00000000000000000000003300000000
#00757:0000000000000043
#01057:0000000000000043
#01056:00000000000000000000003300000000
#01157:00000000000000000000004300000000
#01156:0000000000000033
#01557:00000000630000000000000000130063
#0155b:0063000000000000
#01556:00000000000000000000006300000000
#02658:00630000
#02655:0063000000000000
#0265b:63
#0285a:00440000
#02852:1300004c
#02856:0048
#0285b:13
#03656:23
#03652:0000001300000000
#0365b:0000001300000000
#03855:46
#03852:00360039
#03858:0046
#03955:49
#03952:0053
#0395b:00000000000000000000005300000000
#0415b:6343
#04152:33
#04155:00230046
#0445a:0000000000444400
#04452:0000000000343400
#04456:0014
#0455a:0000000000444400
#04552:0000000000343400
#04556:0014
#04859:23
#0485a:0064
#04852:0034
#04954:23
#0495a:00004423
#04952:0054
#0555b:0063
#05552:0033
#05555:00000023
#0565b:43
#05652:00490000
#05655:00003949
#0545b:0000005300000000
#05457:0023
#05752:394c3c00
#0585b:63
#05852:00000063000000000000000000000000
#05952:3453
#0595b:0043
#05958:00000023
#0595a:44
#06052:33000000000000000000003900000000
#06055:0000390049000049
#06152:1c00005400000000
#0615a:0000005400000000
#06154:00000000000000000000002400000000
#06158:00000000000000000000002400000000
#06252:144c
#0625a:14
#06352:3c4c
#06452:3c4c
#06656:00000000000000000000003500000000
#06655:0000000000000045
#0665b:13
#06652:16
#06952:1600001c1c000000
#06955:00000016000000000000000000000000
#06755:00000000000000000000004500000000
#06756:0000000000000035
#06856:00000000000000000000003500000000
#06855:0000000000000045
#01252:0000001c00000000
#01255:00000016000000000000000000000000
#01258:16
#03356:0023000000000053
#0335b:0000000063000053
#03352:53000000330000000000001300000000
#03357:00000000330000000000001300000000
#03457:2300000000000013
#03452:2300000000000000000000000000000000230000000000000000000013000000
#03456:00000000000000530000000063000000
#0345b:00000063
#05157:0000000000230000
#0515b:00006343
#05156:00000043
#05252:5300006300000000
#0525b:00000013000000002300000000000000
#05256:00000013000000002300000000000000
#05257:00000000000063000000000000000063
#0535b:0023000000000000000000001300000000000000000000006300000000000000
#05357:0000530000000013
#05352:0000530000000013
#05356:0000001300006300
#003320:14
#003380:0054
#004320:24
#0033a1:14
#003341:0054
#0043a1:24
#0043b1:0000000000130000
#005371:23
#013321:0013002300000000
#013361:00330000
#013371:00000000000000000000001300000000
#0133b1:00000000000000000000000000230000
#013361:00000000000000000000000000000013
#014321:00230000000000000000000000000000
#014321:00000000132300000000000000000000
#014351:00000000000013230000000000000000
#014321:0013
#014361:0000000000230000
#014361:00000000000000000000001300000000
#014321:00000000000000000000000000230000
#0153b1:0013002300000000
#015371:00330000
#015361:00000000000000000000001300000000
#015321:00000000000000000000000000230000
#015371:00000000000000000000000000000013
#0163b1:00230000000000000000000000000000
#0163b1:00000000132300000000000000000000
#016381:00000000000013230000000000000000
#017371:0013002300000000
#0173b1:00330000
#017381:00000000000000000013000000000000
#0173b1:00000000000000000000002300000000
#017321:00000000000000000000000000000013
#018361:0023000000000000
#0183b0:0013000000000000
#018370:00230000
#018350:00000000000000000000000000000013
#019320:00230000000000000000000000000000
#019370:00000000000000000000001300000000
#0193b0:00000000000000000000000000230000
#019370:00000000000000000000000000000013
#0203b0:0023000000000000
#019321:00000000000000000000000000000013
#020361:0023000000000000
#0213b1:1300332300000000
#021361:0054000000000000
#021321:0000000000000013
#022361:00540000000000000000000000000000
#022321:0000332300000000
#0223b1:0000000000000013
#023371:53
#0233b1:0023000000000000
#023321:00132300
#023361:0000005300000000
#023361:0000000000130000
#023321:0000000000003323
#024371:0013000000000000
#0243b1:0000332300000000
#025321:13
#025351:0023000000000000
#025380:0013000000000000
#0253b0:00230000
#025351:00130000
#025321:0000002300000000
#0263b1:13
#026381:0023000000000000
#026350:0013000000000000
#026320:00230000
#026381:00130000
#0263b1:0000002300000000
#029361:13230000
#029321:0053000000000000
#0293b0:13230000
#029370:0053000000000000
#029320:0013
#029360:00000000000000000000332300000000
#029320:0000000000000013
#0303a0:54
#030360:0034000000000000
#030320:00540000
#0303b0:0000002300000000
#029361:0000000000000014
#030361:0000002400000000
#030371:00000013
#0303b1:00000000000000000000000000532300
#030320:00000013
#030360:00000000000000000000000000532300
#031360:00130000
#031320:00000000005323000000000000000000
#0313b1:00130000
#031371:00000000005323000000000000000000
#0313b1:0000000000000013
#032371:53
#0323b1:0023000000000000
#033321:13230000
#033361:0053000000000000
#0333b1:0013
#033371:00000000000000000000332300000000
#0333b1:0000000000000013
#034371:53
#0343b1:0023000000000000
#033360:0000000000000013
#034320:53
#034360:0023000000000000
#034360:00000000000000130000230000000000
#034320:0000000000000000000000000000000000530000000000000000000000000000
#0343b1:00000000000000130000230000000000
#034361:00000013
#034321:00000000000000000000000000532300
#0343b0:00000013
#034370:00000000000000000000000000532300
#035370:00130000
#0353b0:00000000005323000000000000000000
#035321:00130000
#035361:00000000005323000000000000000000
#035321:0000000000000013
#036361:53
#036321:0023000000000000
#037321:13
#037351:00230000
#037380:00130000
#0373b0:0023
#039320:0013
#039360:00000000000000000000002300000000
#0393b1:00000000000000000000001300000000
#039371:0000000000000023
#0413b1:13
#041381:00230000
#041350:00130000
#041320:0023
#042320:0000000000000014
#043380:00000054000000000000000000000000
#043320:0024
#0423a1:0000000000000014
#043341:00000054000000000000000000000000
#0433a1:0024
#043361:00000000000000000000000000000014
#044321:00240000000000000000000000000000
#046381:00000012
#047381:32
#0473b1:003232323232230000000000000000000000000000000000
#046360:00000012
#047360:32
#047330:003232323232000000000000000000000000000000000000
#047320:00230000
#047320:000000000000000000000000143434343434343434343434
#048390:33
#048320:003434343434343434343434240000000000000000000000
#0483a1:000000000000000000000000143434343434343434343434
#049341:33
#0493a1:003434343434343434343434240000000000000000000000
#049320:000000000000000000000000143434343434003434343434
#0493a0:00000033
#050320:24
#0503a1:143434343434003434343434240000000000000000000000
#050331:00330000
#0513b1:00001323
#051371:0000000000530000
#052321:13
#052361:00003323000000000000000000000000
#052321:0000001300230000
#052361:0053
#052370:0000001300230000
#0523b0:0053
#052370:00000000000000000000000000000013
#0533b0:0053000000000000000000000000000000000000000000000000000000000000
#053370:0023000000000000
#052321:00000000000000000000000000000013
#053321:0023000000000000
#053371:00130000
#0533b1:00000000005323000000000000000000
#053320:00130000
#053360:00000000005323000000000000000000
#053360:00000013
#053320:00000000000000000000000000532300
#0533b1:00000013
#053371:00000000000000000000000000532300
#0543b1:0000001300230000
#054371:0053
#0553b1:0013
#055381:00000023
#055350:00000013
#056320:23
#0583b0:13
#058370:00000023000000000000000000000000
#058321:00000013000000000000000000000000
#058361:0000002300000000
#059321:0013
#059351:00000023
#059380:00000013
#0603b0:23
#061320:0000001400000000
#061380:00000000000000000000005400000000
#062320:24
#0613a1:0000001400000000
#061341:00000000000000000000005400000000
#0623a1:24
#0653b1:00000000000000000000001300230000
#0703b1:00000000000000000000000000000013
#072321:5c
#074321:23
