This file was generated by Ched 2.7.0.0.
#TITLE ""
#ARTIST ""
#DESIGNER ""
#DIFFICULTY 0
#PLAYLEVEL
#SONGID ""
#WAVE ""
#WAVEOFFSET 0
#JACKET ""
#REQUEST "ticks_per_beat 480"
#00002: 4
#BPM01: 130
#00008: 01
#TIL00: ""
#VOLUME: ""
#HISPEED 00
#MEASUREHS 00
#0061a:1414
#00614:00140000
#00712:1414
#00718:00140000
#0081a:1414
#00814:00140000
#01018:14
#0101a:0014
#01014:00140000
#01114:14
#01112:0014
#01118:00140000
#01312:1414
#01318:00140014
#01310:41
#01414:14
#0141a:00140000
#0151a:1414
#01514:00140014
#01618:14
#01612:00140000
#04418:0014
#04512:0014
#0451a:0014
#04612:1424
#0461a:1424
#0491a:0014
#04912:0014
#0501a:1414
#05012:1414
#05018:00000014
#06314:14
#0631a:0014
#06412:14
#06418:0014
#06712:14001414
#06718:00140000
#0681a:14001414
#06814:00140000
#00318:14
#00512:2414
#00518:00140000
#00912:0014
#00918:00140000
#00914:24
#0211a:14
#02112:14
#02110:41
#02219:14
#02213:14
#0231a:14000034
#02312:14
#02318:0000000000240000
#02512:14140000
#02518:00001414
#02614:14140000
#0261a:00001414
#02714:1434343434343434
#0281a:00140000
#02814:0014
#02818:00000014
#02418:0000000000140014
#02414:0024000000001400
#02412:00340000
#01714:14
#01712:00343400
#01818:14
#0181a:00343400
#01912:14343400
#0201a:14343400
#02914:0014
#02918:00140000
#0291a:00000014
#02912:26
#02910:41
#03018:00000014
#03012:14
#03014:00340000
#0311a:00140000
#03118:00000014
#03114:14
#03112:0014
#0371a:00000014
#03714:14
#04214:0000140000140014
#0421a:14
#04218:00001414
#06218:0014
#06210:41
#06514:14
#06513:00000034000000000000000000000000
#06512:0000003400000000
#06614:00140000
#0661a:24001414
#06914:14
#06913:00000034000000000000000000000000
#06912:0000003400000000
#07018:00000000000000000000000000003414
#0701a:24000024
#07012:0000002400000000
#03214:14
#0321a:00140000
#03318:2614
#03314:00140000
#03312:00000014
#03414:00000014
#0341a:14
#03418:00340000
#03512:00140000
#03514:00000014
#03518:14
#0351a:0014
#03618:14
#03612:00140000
#03812:14
#03818:00140000
#03814:0014
#0381a:00000014
#03912:14
#03914:00343400
#0401a:14
#04014:00140000
#04018:0014
#04012:00000014
#04112:00000014
#04118:14
#04110:41
#0561a:00140000
#05612:0014
#05618:00000014
#05218:14000034
#05212:00140000
#0521a:0014
#05210:00000041
#05314:00140000
#05312:00000014
#05318:0014
#05414:00140000
#0541a:14
#05418:0014
#05412:00000014
#05114:00000014
#05118:0026
#0511f:0021
#05514:0014
#05714:14000034
#0571a:00140000
#05712:0014
#06114:0014001400000000
#06118:14140000
#0581a:0014
#05814:34000014
#05918:1414
#05912:00140000
#06012:00140000
#0601a:0014
#06014:00000014
#0431f:0011
#0471a:0024
#04712:0024
#04819:0024
#04813:0024
#01218:24000034000034000000000000000000
#04458:0014
#00358:54
#0085a:0014
#02754:64
#01754:64
#01858:54
#01952:64
#0205a:64
#04254:0000000000000054
#06554:64
#06552:0014
#06954:64
#06952:0014
#07058:00000000000000000000000000000024
#0705a:00000064
#02952:16
#04652:0014
#0465a:0014
#01258:54
#0125a:0014
#04352:0014
#06354:14
#06452:14
#0045a:0000001400000000
#03052:64
#0345a:54
#03358:16
#03754:64
#03952:64
#04158:54
#0525a:0054
#05554:0064
#05752:0064
#05158:0016
#06154:0000005400000000
#05958:0054
#06252:14
#003380:14
#0043a0:34000034000024000000000000000000
#012380:14000034000034000000000000000000
#0123a0:0024
#014340:00001424
#016380:00001424
#017340:14
#017320:00343424
#018380:14
#0183a0:00343424
#019320:14343400
#019340:00000024
#0203a0:14343400
#020380:00000024
#023380:0000000000140000
#0233a0:0000000000003424
#024340:0014000000000000
#024320:0000342400000000
#027340:1434343434343434
#028320:24
#030320:14
#030340:00342400
#032320:00001424
#0343a0:14
#034380:00342400
#0363a0:00001424
#037340:14
#037320:0024
#039320:14
#039340:00343424
#041380:14
#0413a0:0024
#042340:0000000000000014
#043320:0024
#051340:14343434240000000000000000000000
#0523a0:0014
#052380:00000034
#053380:24
#0553a0:14240000
#055340:0014
#056320:24
#057320:0014
#057340:00000034
#058340:34240000
#059380:0014
#0603a0:24
#061340:0000001400000000
#062320:24
#065340:14
#065330:00000034000000000000000000000000
#065320:0000003424000000
#069340:14
#069330:00000034000000000000000000000000
#069320:0000003424000000
#0703a0:00000014
#070380:00000000000000000000000000003434
#0743a0:24
