This file was generated by Ched 2.7.0.0.
#TITLE ""
#ARTIST ""
#DESIGNER ""
#DIFFICULTY 0
#PLAYLEVEL
#SONGID ""
#WAVE ""
#WAVEOFFSET 0
#JACKET ""
#REQUEST "ticks_per_beat 480"
#00002: 4
#BPM01: 107
#00008: 01
#TIL00: ""
#VOLUME: ""
#HISPEED 00
#MEASUREHS 00
#0011a:14
#00412:14
#00518:14
#00518:14
#00510:41
#00614:14
#02212:1616
#03318:14
#03310:41
#03414:14
#04118:0016
#04112:26
#0411f:21
#04212:16
#04218:0016
#04210:41
#00718:14
#00714:0014
#0021a:14
#00312:14
#00914:14
#00914:14
#01018:14
#01114:14
#01118:0014
#01110:41
#02118:2616
#02318:16
#02312:0016
#02618:1616
#02512:2616
#02510:41
#02712:16
#02718:0016
#03714:14
#03818:14
#03914:14
#04018:14
#04418:16
#04412:0016
#04512:0016
#04518:26
#04618:16
#04612:0016
#04812:16
#04818:0016
#0351f:0000000000000011
#01710:41
#0083a0:14000000000000000000000000000000000000000000000000000000000000000000000000000000000000000000000000000000000000000000000000000000000000000000002400000000000000000000000000000000000000000000000000000000000000000000000000000000000000000000000000000000000000000000000000000000000000000000000000000000000000000000000000000000
#012320:14000000000000000000000000000000000000000000000000000000000000000000000000000000000000000000000000000000000000000000000000000000000000000000002400000000000000000000000000000000000000000000000000000000000000000000000000000000000000000000000000000000000000000000000000000000000000000000000000000000000000000000000000000000
#0133a0:14
#0143a0:24
#015320:14
#016320:24
#017380:14
#018380:24
#019340:14
#020340:24
#024380:1626
#028320:1626
#0293a0:14
#030380:24
#031320:14
#032340:24
#035380:1400000000000024
#043320:1626
#047380:1626
#049320:16000000000000000000000000000000000000000000000000000000000000000000000000000000360000000000000000000000000000000000000000000000000000000000003600000000000000000000000000000000000000000000000000000000260000000000000000000000000000000000000000000000000000000000000000000000000000000000000000000000000000000000000000000000
