This file was generated by Ched 2.7.0.0.
#TITLE ""
#ARTIST ""
#DESIGNER ""
#DIFFICULTY 0
#PLAYLEVEL
#SONGID ""
#WAVE ""
#WAVEOFFSET 0
#JACKET ""
#REQUEST "ticks_per_beat 480"
#00002: 4
#BPM01: 178
#00008: 01
#TIL00: ""
#VOLUME: ""
#HISPEED 00
#MEASUREHS 00
#0051a:14
#0091a:14
#00614:14
#00718:14
#00812:14
#0101a:14
#01112:14
#01212:14
#01318:14
#01310:41
#01418:14
#01514:14
#01614:14
#0171a:14
#01812:14
#02112:14
#0221a:14
#02518:14
#02614:14
#02914:14
#03018:14
#0331a:14
#03310:41
#0341a:14
#03514:14
#03614:14
#03718:14
#03818:14
#03912:14
#04012:14
#0411a:14
#04214:14
#04512:14
#04618:14
#0491a:14
#04910:41
#05014:14
#0511a:14
#0521a:14
#05312:14
#05418:14
#04318:14
#04418:14
#04714:14
#04814:14
#0651a:14
#06514:0014
#0661a:14
#06712:14
#06718:0014
#06812:14
#06918:14
#06914:0014
#07018:14
#07312:0016
#07318:26
#0731f:21
#07310:0041
#07418:16
#07412:0016
#07718:0016
#07712:16
#07812:16
#07818:0016
#07612:16
#07618:0016
#08018:16
#08012:0016
#08118:16
#08112:0016
#08218:1616
#08312:16
#08318:0016
#08412:1616
#08518:16
#08512:0016
#08618:16
#08612:0016
#09214:14
#09218:0014
#09518:0014
#09614:14
#09618:0014
#0641f:00000011
#06310:41
#08910:41
#000320:0000000000000014
#001320:0000000000000034
#002320:0000000000000034
#003320:0000000000000024
#019380:14
#020380:24
#023340:14
#024340:24
#0273a0:14
#0283a0:24
#031320:14
#032320:24
#055320:14
#056320:24
#0573a0:14
#0583a0:24
#059340:14
#060340:24
#061380:14
#062380:24
#063320:14
#064320:24
#071320:14
#072320:24
#075380:1626
#079320:1626
#087380:1626
#088320:1626
#089380:16
#0913a0:24
#093320:16
#095320:24
#097320:1400000000000034
#098320:0000000000000034
#099320:0000000000000024
#1003a0:0000000000000014
#1013a0:0000000000000034
#1023a0:0000000000000034
#1033a0:0000000000000034
#107380:0000000000000024
