This file was generated by Ched 2.7.0.0.
#TITLE ""
#ARTIST ""
#DESIGNER ""
#DIFFICULTY 0
#PLAYLEVEL
#SONGID ""
#WAVE ""
#WAVEOFFSET 0
#JACKET ""
#REQUEST "ticks_per_beat 480"
#00002: 4
#BPM01: 178
#00008: 01
#TIL00: ""
#VOLUME: ""
#HISPEED 00
#MEASUREHS 00
#00818:13131300
#00815:0013001300000000
#00816:00000000000000000000000000000013
#00812:0000000000141400
#00817:00000000000000000000001300000000
#0081a:0000000000000014
#00515:0000000000130000
#00512:14
#0051a:00240024
#00612:14
#00615:0000000000130000
#0061a:00240024
#00712:1400000000000014
#00715:0000000000130000
#0071a:00240024
#01718:0000130000000013
#01712:13000013
#01715:0013
#0171b:0013
#0171a:24
#01812:0013000000000013
#01818:0000001300000000
#0181b:0013000000000000
#01815:0000001300000000
#02714:00000013
#02712:13
#02718:0013000000000000
#02715:00130000
#02716:0000000000130000
#0281b:0013000000000000
#02819:00130000
#02812:0000000000000013
#03018:0000000000130000
#03015:00000013
#0301b:0000000000000013
#03012:0000001400000000
#03016:0014000000000000
#0301a:0000001400000000
#00915:00130013
#00912:0013
#00918:0000000000130000
#0091b:0000000000000013
#0091a:24
#06412:0000001300000000
#0641f:00000011
#06418:00230000
#06415:00000023
#06512:0013000000130000
#06515:0000001300000013
#0651a:00140014
#06518:2222
#06612:0013000000130000
#06615:0000001300000000
#0661a:00140014
#06618:2222
#06915:0013000000130000
#06912:0000001300000013
#0691a:00140014
#06917:2424
#07015:0013000000000000
#07012:0000001300000000
#0701a:00140014
#07017:2424
#07116:0014001400140000
#0711a:2400000024000014
#07112:00240024
#07214:0014140000000000
#07218:00000000000014001400001600000000
#07212:0000000000162600
#07315:00000013
#07318:0000000000000013
#0731b:00130000
#07317:0013
#07316:00130000
#07312:2400000000000013
#0731a:24
#0731f:21
#07310:0041
#07518:00130000
#07512:1300000000000013
#07516:0013
#0751b:0013
#07517:0000000000000023
#07418:0000000000000013
#07417:0000001300000000
#07416:0013000000000000
#0741b:0013000000000000
#07412:0000001300000000
#08612:0000001300000013
#08618:0000001300000023
#08615:0013000000000000
#0861b:0013000000000000
#0871b:0000001313000000
#08712:1300000000000013
#08718:2300000000000023
#08715:0000002323000000
#0881b:0000001313000000
#08818:2300000000000013
#08815:00000000000023002300000000000013
#08812:13
#08918:13
#08912:00130000
#08910:41
#0911b:00130013
#09112:00130013
#09115:0013
#09118:0000000000130000
#09218:1300000023000023
#0921b:00130000
#09212:00130013
#09215:0013002300000000
#01212:0000000000000014
#01217:00000000000000000000000000000013
#01218:0013001300001300
#01215:0000130000130000
#01515:00000013
#01512:0013
#01518:1300000000130000
#01612:1313
#01615:00130013
#01618:00000014
#01915:00130000
#01918:00000013
#01912:0000000000130000
#02015:0000001300000013
#02018:00130013
#0201b:0013000000000000
#02115:0000130000000023
#02118:0013
#02112:1313
#0211b:13000013
#01015:0013131300000000
#01018:0000000000131300
#0111b:0013
#01115:1300000000130000
#01118:00000013
#01112:0000000000000013
#01318:00130013
#0131b:0013
#01315:0000000000130000
#01312:2400000000000013
#01310:41
#01418:0013131300000000
#01415:0000000000131300
#03617:0013000000000000
#03612:00130000
#03616:0000000000130000
#0361b:00000013
#0351b:13001313
#03516:0000000000130000
#03517:00130000
#04017:0000000000130013
#04016:0013000000000000
#0401b:00130000
#04012:00000013
#03917:0000000000130000
#03912:13001313
#03916:00130000
#03712:00130013
#0371b:23130000
#03715:0013
#03718:0000000000130013
#03716:13
#03815:0013131300000000
#03818:0000000000131300
#0221b:0023000000000013
#02215:0000001300000000
#02212:0013000000000000
#02218:0000002300000000
#02318:0000130000000013
#0231b:0000000000130000
#02315:00000013
#04814:0000000000000013
#04815:0000001313000000
#04818:00000000000000130000000000000000
#0481b:0013000000001300
#05518:0000130000000013
#05515:0000001300001300
#0441b:0013000000000013
#04419:00130000
#04412:00000013
#04518:0000130000000013
#04512:0000130000000014
#0451b:1313
#04515:1313
#04718:0000000000130013
#0471b:00130000
#04716:0000001300000000
#04712:13000013
#05415:00000013
#0541b:0000000000130000
#05418:0000000000000013
#05412:0014000000000000
#0541a:0000001400000000
#05416:0000001300000000
#05417:0013000000000000
#05712:24141414
#0571b:0000000000130000
#05717:13
#05719:00330033
#05718:0033000000000000
#05812:14141414
#05817:0013000000000000
#05819:00330000
#0591a:14141414
#05916:1300000000130000
#05912:0000001300000013
#05913:00330000
#05914:0033000000000000
#0601a:14141414
#06012:0000001300000000
#06016:0013000000000000
#06112:14141414
#0611b:0000001300000000
#06119:0033000000130000
#06117:1300000000000023
#06212:14141414
#06217:0000002300130000
#0621b:0023000000000000
#06219:0000000000000033
#06218:00000033
#0631b:0000000000000013
#06312:0000001300000000
#06318:00130000
#06315:00000013
#06310:41
#07712:13000013
#0771b:1300000013000013
#07718:00130000
#07715:0000000013000013
#0791b:0000131300000013
#07917:1300000000130000
#07912:23000023
#07916:0000232300000000
#08018:00130000000000000000000000000000
#08015:13
#08012:0000000013000014
#0801a:0000000000141400
#08016:00000000000000000000001300000000
#08017:00000000000000000000000000000013
#07817:0013000000000013
#07816:0000001300000000
#07812:0013000000000023
#0781b:0000001300000000
#0811b:0013
#08112:2400130000001324
#08116:0013
#08117:00130000
#0811a:0000000000000014
#08215:0000000000000013
#08218:0000001400000000
#08219:0014000000000000
#08213:0024000000000000
#08214:0000002400000000
#08312:0000001300000000
#08315:00130013
#0831b:0013000000130000
#08318:1300000013000013
#10016:0000000000000012
#10112:0000001200000000
#10118:0000000000000012
#02412:13
#0241b:00130000000000000000000000000000
#02418:0000001300000013
#02415:00000000000000130000000013000000
#0311b:1300000000000013
#03118:00000013330000000000000000000000
#03115:00000000000000000000001333000000
#03112:0000001313000000
#03217:00130000
#0321b:13
#03216:0013
#03212:0000130000000026
#03218:00000026
#0461a:0014000000000000
#04612:0000001400000000
#04615:00000013
#04618:0000000000000013
#04617:0000001300000000
#04616:0013000000000000
#04912:0000000013000013
#0491b:23130013
#04918:0000000000000013
#04916:13
#04910:41
#05212:0013000000000013
#05214:00130000
#0521b:00000013
#05116:00000013
#05114:0000000000130000
#05118:0000000000000013
#05112:00130000
#0511b:13
#05117:0000002300000000
#05015:0013000000000000
#0501b:0013000000001300
#05018:0000001300000000
#05012:0000001300000000
#05016:0000000000000013
#05318:1313
#0531b:00130000
#05312:1313
#05315:0000130000000013
#0531a:0000000000000014
#05612:13000024
#05616:0000000000140000
#0561a:00242424
#07616:0013000000000000
#07618:00000013
#07615:0000000000000013
#0761b:0023002300000000
#07614:00330000
#08518:1300000000130013
#08512:0000000000000013
#08515:00001313
#0851b:00230000
#08416:0000000000000013
#0841b:00000013
#08414:0000002400000000
#08418:00240000
#09015:0013
#09014:0000000000130000
#09013:00000013
#0931b:00130000
#09317:00000013
#09315:23
#0941b:00130000
#09418:00000013
#09419:0000000000000013
#0671b:0013000000130000
#06718:0000001300000013
#06712:00140014
#06715:2323
#0681b:0013000000130000
#06818:0000001300000000
#06812:00140014
#06815:2323
#0411b:0000000013000013
#04112:23130013
#04117:13
#04118:00000013
#04317:00000013
#04319:0000000000130000
#04315:0000000000000013
#0431b:00130000
#04312:13
#04316:0000001300000000
#04215:13
#04218:0013000000000000
#04212:00130013
#0421b:0000001300000000
#04217:0000000000000013
#1021c:0000001200000000
#10216:0000000000000012
#10312:0000001200000000
#10318:0000000000000000000000000000000000000000000000000000000000333300
#03316:00000000000000000000000000160000
#03310:41
#0041a:0012
#00416:0000000000120000
#00418:0012000000000012
#00414:0000001200000000
#0031c:0000000000000012
#00316:00000012
#00312:0012
#00318:0000000000120000
#00018:0000000000000012
#00116:0000000012000012
#0011c:0000000000120000
#00218:0012
#00212:0000000000120000
#0021c:0000000000000012
#02618:0000000000000013
#02612:0000001300000000
#02616:0014000000000000
#0261a:0000001400000000
#02515:0000130000130000
#0251b:13
#02518:00130013
#02512:2300000013000014
#0291a:0000000000000014
#02912:13
#02915:00130013
#0291b:1313
#02918:00130000
#09618:2313231300000000
#09615:1323132300000000
#09612:0000000024242424
#0961a:0000000024242424
#09518:0000000000130000
#09515:0013000000000000
#0951b:0000000000000013
#0951a:24240000
#09512:00002424
#00858:0013
#0095a:14
#0095b:0000000000000053
#01352:1400000000000063
#0175a:14
#01758:0000000000000053
#01752:53
#0175b:0063
#0715a:0000000000000014
#08958:53
#01858:0000005300000000
#0185b:0053000000000000
#01855:0000006300000000
#01055:0000005300000000
#01458:0000006300000000
#01658:00000054
#03855:0000005300000000
#03758:0000000000000053
#0375b:13
#02055:0000006300000000
#06052:0000006300000000
#06056:0063000000000000
#07358:0000000000000053
#07356:00630000
#0735a:14
#07352:14
#0745b:0063000000000000
#07457:0000005300000000
#07452:0000005300000000
#07558:00530000
#07552:5300000000000053
#07556:0053
#0755b:0053
#07652:0000001300000000
#07656:0053000000000000
#0765b:0000001300000000
#07752:63
#0775b:0053
#07755:0000000000000063
#08058:00230000000000000000000000000000
#08055:23
#0805b:00430000
#08052:00330000
#0795b:0000000000000063
#07952:00000063
#08157:00530000
#08152:14
#0815b:0053
#08352:0000002300000000
#08355:00530053
#0835b:0023000000230000
#08358:6300000063000063
#0915b:00130000
#09152:00000013
#0925b:00130000
#09252:00000013
#09258:0053
#10056:0000000000000062
#10152:0000002200000000
#10158:0000000000000052
#0215b:63
#02152:0063
#02155:0000000000000063
#02355:00000063
#02358:0000000000000053
#02452:23
#0245b:00230000000000000000000000000000
#02255:0000006300000000
#02252:0063000000000000
#02258:0000005300000000
#03052:0000001400000000
#03056:0014000000000000
#0305a:0000001400000000
#03257:00230000
#0325b:53
#03252:0000000000000056
#03158:00000023000000000000000000000000
#0315b:53
#03155:00000000000000000000002300000000
#03152:0063
#04552:0000530000000014
#04558:00530000
#0455b:5353
#04555:5353
#0465a:0014000000000000
#04652:0000001400000000
#04657:0000006300000000
#04752:53
#04758:0000000000000063
#04855:0063
#0485b:0023000000000000
#05358:6363
#0535b:00630000
#05352:6363
#05355:00630000
#0535a:0000000000000014
#0495b:13630000
#04956:63
#05158:0000000000000063
#0515b:63
#05452:0014000000000000
#0545a:0000001400000000
#05558:00130000
#05555:00000013
#05652:63
#05752:14
#0575b:0000000000530000
#05757:53
#07856:0000006300000000
#07852:0053000000000000
#0785b:0000006300000000
#08558:0000000000000013
#08658:0000001300000000
#08655:0013000000000000
#08652:0000006300000000
#08456:0000000000000063
#08454:0000001400000000
#08458:00140000
#08855:0053
#08852:53
#09355:53
#01152:0000000000000063
#01258:0000006300000000
#07252:00000016
#06752:00140014
#06852:00140014
#0655a:00140014
#0665a:00140014
#0695a:00140014
#0705a:00140014
#08258:0000006400000000
#08254:0000006400000000
#05052:0000005300000000
#04152:13530000
#04157:53
#04355:0000000000000053
#04352:53
#0425b:0000006300000000
#0965a:0000000000000014
#09652:0000000000000014
#05857:0053000000000000
#05956:6300000000630000
#05952:0000006300000063
#06157:53
#06257:0000000000530000
#08752:53
#0875b:0053
#1025c:0000002200000000
#10256:0000000000000062
#10352:0000002200000000
#03356:00000000000000000000000000260000
#03452:00000036
#00058:0000000000000062
#00156:0000000000000052
#0025c:0000000000000062
#02652:0000005300000000
#0255b:63
#02558:00630000
#02552:13
#0295a:0000000000000014
#02952:53
#02955:00530000
#06455:00000013
#0955a:00140000
#09552:00000014
#000380:0000000000000012
#0013c0:0022
#001360:0000000000000012
#002320:0022
#0023c0:0000000000000012
#003380:0022
#009380:00132300
#0093b0:0000000000000013
#010380:0053002300000000
#010351:0000001300000000
#010321:0000000000532300
#011381:13230000
#011350:00132300
#011320:0000000000000013
#012350:0023000000000000
#012380:0000001300000000
#0123b0:0000000000230000
#013350:00132300
#013320:0000000000000013
#014350:0053002300000000
#014381:0000001300000000
#0143b1:0000000000532300
#015351:13230000
#015380:00132300
#0153a0:0000000000000014
#016380:34343434
#0163a0:0034003400340000
#0173a0:24
#017321:13
#017351:00230000
#0173b1:0013
#017381:00000023
#017381:0000000000000013
#0183b1:0033000000002300
#018381:0000003300000000
#018350:0000001300000000
#018320:00000023
#019380:13230000
#0193b0:0000001300230000
#019350:0000000000000013
#020350:0023000000000000
#020350:0000001300000000
#020320:00000023
#0213b0:13
#021380:00230000
#021320:0013
#021350:00000023
#021350:0000000000000013
#022320:0033000000002300
#022350:0000003300000000
#022381:0000001300000000
#0223b1:00000023
#023351:13230000
#023321:0000001300230000
#023351:00000013
#024321:53
#024351:00230000
#023380:0000000000000013
#0243b0:00530000000000000000000000000000
#024380:00230000
#024380:00001323
#0253b0:1323
#025380:00330000
#026320:0000001300000000
#026350:00000023
#0273b0:0000001300000023
#027321:0000000000000013
#028321:00000023
#028370:0000001300002300
#029320:1323
#029350:00330000
#0313b0:1300002300000000
#031380:00000053330000000000000000000000
#031320:0000000013000023
#031350:00000000000000000000005333000000
#0323b0:1323
#032370:00530000
#032320:0000000000000016
#033360:00000000000000000000000000560000
#034320:00000026
#035360:1323
#035320:00330000
#035360:0000000000000013
#036320:0023000000000000
#036370:0000001300000000
#0363b0:0000000000230000
#037380:0000000000000013
#0383b0:0053002300000000
#038351:0000001300000000
#038321:0000000000532300
#039371:1323
#0393b1:00330000
#039371:0000000000000013
#0403b1:0023000000000000
#040361:0000001300000000
#040321:0000000000230000
#041371:13
#0413b1:00230000
#041320:00130000
#041360:0023
#0423b0:0000001300000000
#042370:00000023
#043320:13
#043360:00230000
#043350:0000000000000013
#044320:0053002300000000
#044371:0000001300002300
#0453b1:1333
#045381:00330023
#045350:1333
#045320:00330023
#046370:0000001300000000
#0463b0:00000023
#047320:13
#047360:00230000
#047380:0000000000000013
#0483b0:0053000000000000
#048380:0000002300000000
#048350:0013
#048320:00000023
#049360:13
#049320:00230000
#0493b1:00130000
#049371:0023
#050321:0000001300000000
#050361:00000023
#0513b1:13
#051371:00230000
#051381:0000000000000013
#0523b1:0053002300000000
#052360:0000001300002300
#053320:1333
#053350:00330023
#053381:1333
#0533b1:00330023
#055321:13230000
#0553b1:00001323
#056321:13
#056361:0023
#057371:1300000000000033
#057381:0033000000000000
#057391:00330033
#0573b1:0000003300330000
#058371:0033000000000000
#058391:00330000
#0583b1:0000003300002300
#059361:1300000000330000
#059341:0033000000000000
#059331:00330000
#059321:0000003300000033
#060361:0033000000002300
#060321:0000003300000000
#061371:13
#061391:0033000000000000
#0613b1:00230000
#062371:0000000000130000
#062381:00000033
#062391:0000000000000033
#0633b1:23
#063350:13230000
#063380:00001323
#064350:13
#064320:00230000
#064380:0013
#0643b0:00000023
#070360:00000013
#071320:23
#073360:00130000
#073320:0023
#073380:0000000000000013
#0743b0:0033000000002300
#074370:0000003300000000
#074321:0000001300000000
#074361:00000023
#075321:13
#075351:00230000
#075380:00130000
#0753b0:0053
#075370:00000023
#075361:0013
#075321:0000000000003333
#076361:0033000000000000
#076341:00330000
#076321:0000002300000000
#077321:13
#077351:00230000
#0773b1:0013
#077381:00000023
#077351:0000000000000013
#078321:0033000000002300
#078361:0000003300000000
#0783b0:0000001300000000
#078370:00000023
#079320:00000013
#080350:53
#080320:00230000
#0793b1:0000000000000013
#080381:00530000000000000000000000000000
#0803b1:00230000
#081371:00130023
#0813b1:0033
#082381:0000001400002300
#082340:0000001400000000
#082350:00000023
#083380:13230000
#0833b0:0053000000000000
#083351:00132300
#083321:0000005300000000
#083380:00001323
#0833b0:0000000000530000
#083351:00000013
#084321:0023000000000000
#083380:0000000000000013
#0843b0:0023000000000000
#084360:0000000000000013
#085320:00230000
#086320:0000001300000000
#086350:00000023
#087320:13
#087350:00230000
#087381:13230000
#0873b1:0013
#087381:00000023
#087350:00001323
#088320:13
#088350:00230000
#088381:13230000
#088351:0013
#088321:0000000000000023
#089381:13
#0913b1:0023000000000000
#089320:0000001300000000
#089340:0033
#089360:0000000000230000
#089360:00000013
#089340:0000000000000033
#090320:23
#090320:0013000000000000
#090340:00330000
#090360:0000002300000000
#090320:0000000000000013
#091360:0023000000000000
#092380:0013
#0923b0:00000023
#093350:13
#095320:23
#0933b1:0000001300000000
#093371:0000000000230000
#093371:0000000000000013
#0943b1:0023000000000000
#0943b1:0000001300000000
#094371:0000000000230000
#100360:0000000000000012
#101320:0000005200000000
#101360:0000000000000022
#101381:0000000000000012
#1023c1:0000005200000000
#102381:0000000000000022
#102360:0000000000000012
#103320:0000005200000000
#103360:0000000000000022
#103381:0000000000000000000000000000000000000000000000000000000013333300
#1073c1:0000000000000022
