This file was generated by Ched 2.7.0.0.
#TITLE ""
#ARTIST ""
#DESIGNER ""
#DIFFICULTY 0
#PLAYLEVEL
#SONGID ""
#WAVE ""
#WAVEOFFSET 0
#JACKET ""
#REQUEST "ticks_per_beat 480"
#00002: 4
#BPM01: 178
#00008: 01
#TIL00: ""
#VOLUME: ""
#HISPEED 00
#MEASUREHS 00
#00815:13130000
#00818:0013001300000000
#00812:00001313
#0081b:00001313
#00512:00130013
#00518:0000000000130000
#0051a:24
#0061b:13
#00612:00130013
#00618:0000000000130000
#02018:0000130000000013
#02015:0000001300000000
#02012:0013000000000000
#04015:0000001300000013
#04012:0013000000130000
#04018:0013000000001300
#0401b:0000001300000000
#0221b:0000000000000013
#02218:0023000000000000
#02215:0000002300000000
#02318:0000130000130013
#02315:13000013
#02312:0000001300000000
#07915:0000230000130023
#07918:23000013
#0791b:0000002300000000
#0071b:1300000000000013
#00712:00130013
#00718:0000000000130000
#00915:0000131300000013
#0091b:0000131300000000
#00912:2400000000130000
#00918:0000000000130000
#0091a:24
#01118:0000131300000013
#01112:1400131300000000
#0111b:0000000000130000
#01115:0000000000130000
#0111a:14
#01312:2400130000130000
#01318:0000130000130000
#01315:0000001300000000
#0131b:0000001300000000
#0131a:24
#01310:41
#01512:1400001300000000
#0151a:14
#0151b:0000130000130000
#01515:0000130000130000
#01518:0000001300000000
#01615:0000000000000013
#01715:00130000
#01718:0000000013000013
#01712:00000013
#0171b:23
#01815:0013000000000013
#01818:0000001300000000
#01918:1300000000000013
#01912:0000131300000000
#0191b:0000000000130000
#01915:00000013
#02118:00130000
#02115:0000000013000023
#0211b:00000013
#02112:13
#0241b:0013000000000000
#02418:0000000000000013
#02412:00000000000000330000000000000000
#02815:0000130000000013
#02818:0000001300000000
#0281b:0013000000000000
#02518:00130000
#02515:0000000013000013
#0251b:00000013
#02512:23
#02618:0013000000000013
#02615:0000001300000000
#02715:1300000000000013
#0271b:0000131300000000
#02712:0000000000130000
#02718:00000013
#02915:00130000
#02918:0000000013000013
#02912:00000013
#0291b:13
#03015:0013000000000013
#03018:0000001300001300
#03012:0000000000130000
#03112:0000001300000000
#03115:0000000000000013
#03512:1300001300130000
#03518:00131300
#03515:0000000000000013
#0351b:0000000000000013
#03715:00131300
#0371b:0000001300130000
#03718:0000000000000013
#03712:0000000000000013
#0371a:24
#03615:0000001300000013
#03612:0013000000130000
#03618:0013000000001300
#0361b:0000001300000000
#03818:0000001300000013
#0381b:0013000000130000
#03815:0013000000001300
#03812:0000001300000000
#03912:1300001300130000
#03918:00131300
#03915:0000000000000013
#0391b:0000000000000013
#0411b:13
#04115:00130000
#04118:0013
#04112:00000013
#04215:0000000000000013
#0431b:1300000000130000
#04312:0000131300000000
#04315:00000013
#04318:0000131300000013
#04415:0013000000000000
#04418:0000130000000013
#04512:13
#04518:00130000
#04515:0013
#0451b:00000013
#04618:0000000000000013
#04712:1300000000130000
#0471b:0000131300000000
#04718:00000013
#04715:0000131300000013
#0491b:1313
#04918:0000130000000013
#04912:00130013
#04915:1313
#04910:41
#05015:0013000000000013
#05018:0000001300000000
#05012:00000013
#0501b:00000013
#05115:0000001300000013
#0511b:0000000000130000
#05118:00000013
#05218:0013000000000000
#05215:00130000
#0521b:0000000000000013
#05312:1313
#0531b:00130013
#05315:0000130000000013
#05318:1313
#05418:0013000000000013
#05415:0000001300001300
#0541b:0000000000130000
#05518:0000001300000000
#0551b:0000000000000013
#05615:13
#05618:00001313
#05612:00000013
#05712:00130000
#05718:0000001300000000
#05715:2300000000130013
#0571b:23000013
#05818:0013001300000000
#05812:00130000
#05915:13130000
#05918:0013001300000000
#05912:0000000000130000
#06018:0000001300000000
#06112:1300000000000024
#06118:0013000000001300
#06115:0000130000130000
#0611b:0000001300000000
#06212:0000000000130000
#06218:00000013
#06215:0000000000000013
#06216:0024000000000000
#0621a:0000002400000000
#06315:0000001300000000
#06312:0000000000000013
#0631b:13
#06318:0013
#06310:41
#06412:13
#0641b:0000001313000000
#0641f:00000011
#06512:1300000000000013
#06518:0013000000001300
#06515:0000130000130000
#0651b:0000001300000000
#06612:0013001300000000
#06618:00130000
#0671b:1300000000000013
#06715:0013000000001300
#06718:0000130000130000
#06712:0000001300000000
#0681b:0013001300000000
#06815:00130000
#06915:13130000
#06918:0013001300000000
#06912:0000000000130000
#0691b:0000000000000013
#07015:0013001300000000
#07018:00130000
#0701b:0013
#07012:0013
#0711b:13130000
#07115:0013001300000000
#07118:00001313
#07112:0000000000130013
#0721b:00001313
#07212:00000013
#07215:0033333300000000
#0731b:23130000
#07315:00130000
#07318:0013
#07312:23001313
#0731f:21
#07310:0041
#07418:0000001300000000
#07415:0000000000000013
#0751b:13001313
#07512:00130000
#07518:00130000
#07515:0013
#07615:0000001300000000
#07618:0000000000000013
#07712:1313
#0771b:00130000
#07715:00130013
#07718:0013
#0781b:0000001300000000
#07812:0000000000000023
#0801b:00001313
#08012:00001313
#08112:2300130000000023
#08118:00130000
#08115:0013
#0811b:23001313
#0821b:0000001300000000
#08212:0000001300000013
#08318:1300000013000013
#0831b:00130000
#08315:00130000
#08312:00001313
#08415:0013002300000000
#0841b:00230013
#08412:00000013
#0851b:13130000
#08515:00130000
#08518:0000000000130000
#08512:13001313
#08612:0000001300000000
#08618:0000001300000000
#0861b:0000000000000013
#08715:1300000000000013
#08718:0000001313000000
#08815:13
#08818:0000002323000000
#08816:0000000000000023
#08912:13
#08917:13
#08910:41
#09418:13
#09412:13
#04812:0013000000000013
#0481b:00000000000000330000000000000000
#09218:13132300
#09215:0013002300000023
#0921b:0000000000000023
#0911b:13
#09115:00130000
#09112:00000013
#09118:0013
#09012:00000013
#09518:00130000
#09515:0013
#0951b:00000013
#09615:13130000
#09618:0013001300260026
#09612:00002626
#03214:00000024
#0321a:0000000000000024
#0931b:23
#09315:23
#1031a:0000000000000000000000000000000000000000000000000000000000343400
#03310:41
#00952:14
#0095a:14
#0735b:13
#07352:13
#01552:14
#0155a:14
#0175b:13
#02055:0000005300000000
#01858:0000006300000000
#02358:0000000000000063
#01352:14
#0135a:14
#0245b:0023000000000000
#02858:0000006300000000
#02655:0000005300000000
#0295b:13
#02958:0000000000000013
#02552:13
#03055:0013000000000000
#03058:0000001300000000
#0325a:0000000000000064
#0375a:14
#04258:0000001300000000
#04252:0000001300000000
#04655:0000001300000000
#0465b:0000001300000000
#04755:0000000000000063
#05058:0000001300000000
#05155:0000000000000013
#05455:0000001300000000
#05655:53
#05758:0000001300000000
#05755:0000000000000013
#05858:0000006300000000
#06058:0000006300000000
#0615b:0000001300000000
#06452:63
#0645b:0053
#06652:0000005300000000
#0685b:0000006300000000
#06952:0000000000130000
#0695b:0000000000000013
#0705b:0063
#07052:0053
#07152:0000000000000053
#07458:0000005300000000
#07655:0000006300000000
#0785b:0000006300000000
#07955:0000000000000053
#0825b:0000006300000000
#08252:0000005300000000
#08152:13
#0815b:13
#08358:0000000000000013
#08652:0000005300000000
#08658:0000005300000000
#08755:53
#08758:0063
#08855:53
#08858:0063
#08952:23
#08957:23
#09258:0053
#0635b:13
#06358:0053
#09458:23
#09452:23
#0935b:63
#09355:63
#04852:0023000000000000
#02255:0000006300000000
#08455:0000001300000000
#0855b:13
#08552:13
#09658:0000000000000016
#0003a0:0000000000000012
#0013a0:0022
#001360:0000000000000012
#002360:0022
#002380:0000000000000012
#003380:0022
#003340:0000000000000012
#004340:0022
#0093b0:0000000000000013
#010380:0033000000332300
#0103b0:0000003300000000
#011320:0000000000000013
#012350:0033000000332300
#012320:0000003300000000
#0133b0:0000000000000013
#014380:0033000000332300
#0143b0:0000003300000000
#013351:0000000000000013
#014321:0033000000332300
#014351:0000003300000000
#015321:0000000000000013
#016351:0033000000332300
#016321:0000003300000000
#015380:0000000000000013
#0163b0:0033000000332300
#016380:0000003300000000
#018380:0000001300000000
#0183b0:00000023
#020350:0000001300000000
#020320:00000023
#022350:0000001300000000
#022320:00000023
#023380:0000000000000013
#0243b0:0053000000000000
#024380:0000002300000000
#024351:0000001300000000
#024321:00000000000000333300000023000000
#026351:0000001300000000
#026321:00000023
#028381:0000001300000000
#0283b1:00000023
#0313b1:13230000
#031381:00001323
#0323b1:13332300
#0323a1:0000000000000014
#034381:00000023
#041381:0000000000000013
#042381:0000002300000000
#042320:0013002300000000
#044320:0000001300002300
#045350:0000000000000013
#046350:0000002300000000
#0463b1:0013002300000000
#047351:0000000000000013
#048321:0053000000000000
#048351:0000002300000000
#048380:0000001300000000
#0483b0:00000000000000333300000023000000
#051380:13
#0513b0:00230000
#052320:0000001300002300
#055320:13230000
#055350:00001323
#056350:13
#056320:0023
#058380:0000001300000000
#0583b0:00000023
#059380:0000000000000013
#0603b0:0033000000002300
#060380:0000003300000000
#063380:0013
#0633b0:00000023
#064320:13
#064350:00230000
#0643b0:0013
#064380:00000023
#066320:0000001300000000
#066350:00000023
#0683b0:0000001300000000
#068380:00000023
#0703b0:0013
#070380:00000023
#070321:0013
#070351:00000023
#071321:0000000000000013
#072351:0033333323000000
#073381:0000000000000013
#0743b1:0033000000002300
#074381:0000003300000000
#075351:0000000000000013
#076321:0033000000002300
#076351:0000003300000000
#0773b1:0000000000000013
#078381:0033000000002300
#0783b1:0000003300000000
#079351:0000000000000013
#080321:00230000
#081321:0000000000000013
#082351:0033000000002300
#082321:0000003300000000
#0823b0:0000001300000000
#082380:00000023
#085380:0000000000000013
#0863b0:0033000000002300
#086380:0000003300000000
#086321:0000001300000000
#086351:00000023
#087351:13
#087321:00230000
#087381:0013
#0873b1:00000023
#088351:13
#088321:00230000
#088381:0013
#0883b1:0000000000000033
#088391:00000000000000000000000000000033
#089371:33
#0903b1:0023
#088360:0000000000000013
#088340:00000000000000000000000000000033
#089320:33
#090360:0023
#092380:0013
#0923b0:00000023
#0933b0:13
#094380:53
#0953b0:23
#093351:13
#094321:53
#095351:23
#100341:0000000000000012
#101341:0022
#101361:0000000000000012
#102361:0022
#102381:0000000000000012
#103381:0022
#1033a1:0000000000000000000000000000000000000000000000000000000014343400
#107371:0000000000000022
