This file was generated by Ched 2.7.0.0.
#TITLE ""
#ARTIST ""
#DESIGNER ""
#DIFFICULTY 0
#PLAYLEVEL
#SONGID ""
#WAVE ""
#WAVEOFFSET 0
#JACKET ""
#REQUEST "ticks_per_beat 480"
#00002: 4
#BPM01: 178
#00008: 01
#TIL00: ""
#VOLUME: ""
#HISPEED 00
#MEASUREHS 00
#0081a:1414141414000000
#00812:1414141414001400
#00818:00000000000000000000001200001200
#00816:00000000000000000000120000000012
#00618:12
#00616:0000000000140000
#00612:00140014
#0061a:00240024
#00718:12
#00716:0000000000140014
#00712:00140014
#0071a:00240024
#0171b:2300130013000013
#01712:1300000000001313
#01716:00130000
#01814:0013000000000013
#0181b:0013001300000000
#01816:0000001300000000
#01812:00000000000000000013000000000000
#01817:13000000130000000013000000000000
#02714:00000013
#02717:1300131300000000
#02716:0000000000130000
#02712:0000000000000013
#0281b:0013000000001300
#02819:00130000
#02816:0013000000000014
#02812:0000000000131300
#0301b:0000000000130000
#03015:00000013
#03018:0014000000000013
#03012:0013001300130000
#0301a:0000001400000000
#00912:24130000
#00916:0000000013001313
#0091b:0000000000130013
#00917:00130000
#0091a:24
#06512:1313000013130000
#06516:0000131300001313
#0651b:00130013
#0651c:22
#06518:0022
#06614:0013001300130000
#0661b:00130013
#06616:00130013
#06612:1313
#0661c:22
#06618:0022
#06914:0014001400000000
#06919:00150000
#06912:00142415
#06916:1414
#06918:0000000000140014
#0691a:24000014
#07212:0014141414002400
#0721a:0014141414002400
#07216:00000000000000000000141400000000
#07312:2600130000001313
#07317:0000131300001313
#0731b:0013
#07318:26
#0731f:21
#07310:0041
#07517:0013000000130000
#07512:1300000013000024
#07516:0000001300001400
#0751b:23130000
#0751a:0000000000000024
#07416:0013000000000014
#07417:0000001300000000
#07412:0000000000131300
#0741b:00000013
#08612:1c001c1300000013
#08616:00001400000014000013000000000000
#0861b:0013000000001300
#08618:0000000000000023
#0871b:0000001300000000
#08712:0000000000000013
#08718:2300000000000023
#08715:0000002323000000
#0881b:0000001313000000
#08817:00000000000000000000001300001300
#08812:00000000000000000000000000000013
#08818:23
#08815:0000002323000000
#08918:16
#08910:41
#0911b:00130000
#09115:0000000000130000
#09112:00000013
#09118:0000001300000013
#0921b:13130000
#09212:00001313
#09218:0013000000000026
#09215:0000000000130000
#09216:0000002424000000
#09512:00232616
#09518:2600160016130013
#09515:0013001300000000
#0951b:00000023
#01216:0000000000000012
#01218:00000000000000000000000000000012
#01212:0000131300130000
#0121b:0013000000001300
#01217:0000001300000000
#01618:1616161616130013
#0161b:00000013
#01615:00000000000000000000001300000013
#01914:00130013
#01916:0000000000130000
#01912:1300001300000013
#01917:1300001300000000
#0191b:0000000000000013
#01012:00001300000000000013000000000000
#01014:00130000
#0101b:0000000000131300
#01016:0000001300000000
#01017:0013000000000000
#01019:00330000
#0111b:0000001300001313
#01118:0013
#01115:1300000000130000
#01112:0013000000001313
#0201b:0000001300000000
#02014:00130000
#02012:0013000000000000
#02016:0000001300000000
#02019:0000000000000013
#02419:00000000000000120000000000000000
#02415:0000001212000000
#02412:0000000000000013
#0641f:00000011
#06416:0013001400000000
#06417:0000000000130000
#0641b:23231300
#06412:13002323
#04216:1200001300000000
#04219:0013000000000000
#04218:00120000
#04212:00000000000000000013000000001300
#0421b:0000001300001300
#04214:0013000000000000
#04217:0000000000000013
#0481b:0000000000000013
#04815:0012
#04816:0000001200000000
#04819:00000000000000220000000000000000
#05516:13140014
#05512:0000001323000000
#0551b:2300000000000013
#05517:0013
#04312:0000131300000013
#04314:00000013
#04316:1300000000130000
#04317:0000001300000000
#0431b:1300000000130000
#04319:00000033
#04412:0000001300000013
#04419:00130000
#0441b:0013000000000013
#04416:0013000000000000
#04414:00330000
#05616:0000130000140000
#05612:13000023
#0561b:23232323
#00516:1200000000140000
#00512:00140014
#0051a:00240024
#04112:2400000013000013
#0411b:00130013
#04117:1300000000000013
#04116:00130000
#0451b:1300000000000013
#04512:0013000000000013
#04517:0013000000000000
#04516:1300001300000000
#04519:00130000
#04514:00000000130000003313000000000000
#0471b:0000001300000023
#04716:0000001300140000
#04717:13
#04712:13000013
#05712:24141414
#0571b:0013001300001300
#05717:1300130000130013
#05812:14141414
#0581b:0013000000000000
#05819:00130000
#05817:0000001300000000
#0591a:14141414
#05916:1300001300130013
#05912:0013000013001300
#05914:00130000
#0601a:14141414
#06016:0000001300000000
#06014:00130000
#06112:14141414
#0611b:0000131300001300
#06117:1300000000000023
#06119:0013000000000000
#06212:14141414
#06217:0000002300130000
#06219:00000013
#0621b:0023000000000013
#0771b:1300130013330013
#07717:0000001300000000
#07716:0013000000000000
#07712:1300000013330013
#0791a:0000121200000000
#07916:1200000000121200
#07914:0000222200000000
#07918:2200000000222222
#08216:0000000000000014
#0821a:0013000000001400
#08219:0000001300000000
#08016:00120000000000000000001200001200
#08012:00001414
#08018:00120000000000000000120000000012
#0801a:00001414
#02312:00000013
#0231b:1300001300000013
#02319:00130013
#02317:0000000000130000
#02316:1300001300000000
#0321b:1300000000002323
#03214:0000000000000014
#03217:0013000000000000
#03218:0000001300140000
#03215:00000000000000130000000000000000
#03216:13000014
#03212:00130000
#0321a:0014
#03117:0013000013000000
#0311b:13000013
#03112:00131300
#03116:0000000000130000
#03119:0000001300000000
#03114:0000000000000013
#03115:13
#04612:00000013
#04616:0000000000140014
#0461b:00000013
#04619:0013000000000000
#04614:0013000000000000
#07617:00000013
#07619:0000000000000013
#07616:14141400
#0761a:0024002400140000
#07612:0024002400001300
#0781a:0012001200001200
#07818:1200000000000022
#0781c:00120000
#07814:0012001200001200
#07816:1200000000000012
#07812:00120000
#08515:00000013
#08518:0000000000130000
#08512:1300000013000013
#0851b:1313
#08516:0000240000000014
#09316:00000012
#09312:26
#09418:00000012
#0941a:0000120000000012
#00016:0000000000000012
#03316:00000000000000000000000000140000
#03312:24140014
#03310:41
#00112:0000001200000000
#00118:0000000000000012
#00114:0032000000320000
#00113:00323200
#0131b:00130000
#01317:0000000013001313
#01312:2400000000130013
#01316:00130000
#0131a:24
#01310:41
#0141b:00001300000000000013000000000000
#01419:00130000
#01412:0000000000131300
#01417:0000001300000000
#01416:0013000000000000
#01414:00330000
#0151b:0013000000130000
#01512:0000001300000000
#01518:13000013
#01515:0000000000000013
#02219:0023000000000013
#02212:0013001300000000
#0221b:00000000000000000013000000000000
#02216:13000000130000000013000000000000
#02217:0000002300000000
#02112:1300130013000023
#0211b:1300000000001323
#02117:00130000
#0261b:0013001300000013
#02614:0014000000000000
#02612:0000001400000000
#02616:0000000000001313
#02617:00000000000000000013000000000000
#04014:0000000000000014
#04018:0000001300140000
#04015:00000000000000130000000000000000
#0401a:00141400
#04016:1414000000001400
#04012:00140000
#03517:0013000000130000
#0351b:0000001300000013
#03516:0000000000000013
#0361b:0013131300000000
#03612:00130000000000000000130013000000
#03616:00000000000000000000000000000012
#03618:0000000000000012
#03617:00000000000000000013000000000000
#0511b:0000130000000013
#05119:00000013
#05117:1300002200130000
#05112:1300000000130000
#05116:0000000000000013
#04912:00130013
#04916:1300000000000013
#0491b:0000000013000013
#04917:00130000
#0491a:24
#04910:41
#05212:0013000000000013
#05214:00130000
#05217:0013000000000000
#0521b:0000001300000013
#05219:00330000
#0531a:1400000014000014
#05312:0000000000000014
#05318:000000000000000000000000000000000000000000000000000000000000000000000000000000000000000000000000000000000000000000000000000000000000000000000000000000000000000000000000000000000000000000000000000000000000000000000000000000000000000000000000001300000000000000000000000000000000000000000000000000000000000000000000000000000000000000000000000000000000000000000000000000000000000000000000000000000000000000000000000000000000000000000000000000000000000000000000000000000000000000000000000000000000000000000000000000000000000000000000000000000000000000000000000000000000000000000000000000000000000000000000000000000000000000000000000000000000000000000000000000000000000000000000000000000000000000000000000000000000000000000000000000000000000000000000000000000000000000000000000000000000000000000000000000000000000000000000000000000000000000000000000000000000000000000000000000000000000000000000000000000000000000000000000000000000000000000000000000000000000000000000000000000000000000000000000000000000000000000000000000000000000000000000000000000000000000000000000000000000000000000000000000000000000000000000000000000000000000000000000000000000000000000000000000000000000000000000000000000000000000000000000000000000000000000000000000000000000000000000000000000000000000000000000000000000000000000000000000000000000000000000000000000000000000000000000000000000000000000000000000000000000000000000000000000000000000000000000000000000000000000000000000000000000000000000000000000000000000000000000000000000000000000000000000000000000000000000000000000000000000000000000000000000000000000000000000000000000000000000000000000000000000000000000000000000000000000000000000000000000000000000000000000000000000000000000000000000000000000000000000000000000000000000000000000000000000000000000000000000000000000000000000000000000000000000000000000000000000000000000000000000000000000000000000000000000000000000000000000000000000000000
#05317:000000000000000000000000000000000000000000000000000000000000000000000000000000000000000000000000000000000000000000000000000000000000000000000000000000000000000000000000000000000000000000000000000000000000000000000000000000000000000000000000140000000000000000000000000000000000000000000000000000000000000000000000000000000000000000000000000000000000000000000000000000000000000000000000000000000000000000000000000000000000000000000000000000000000000000000000000000000000000000000000000000000000000000000000000000000000000000000000000000000000000000000000000000000000000000000000000000000000000000000000000000000000000000000000000000000000000000000000000000000000000000000000000000000000000000000000000000000000000000000000141300000000000000000000000000000000000000000000000000000000000000000000000000000000000000000000000000000000000000000000000000000000000000000000000000000000000000000000000000000000000000000000000000000000000000000000000000000000000000000000000000000000000000000000000000000000000000000000000000000000000000000000000000000000000000000000000000000000000000000000000000000000000000000000000000000000000000000000000000000000000000000000000000000000000000000000000000000000000000000000001300000000000000000000000000000000000000000000000000000000000000000000000000000000000000000000000000000000000000000000000000000000000000000000000000000000000000000000000000000000000000000000000000000000000000000000000000000000000000000000000000000000000000000000000000000000000000000000000000000000000000000000000000000000000000000000000000000000000000000000000000000000000000000000000000000000000000000000000000000000000000000000000000000000000000000000000000000000000000000000000000000000000000000000000000000000000000000000000000000000000000000000000000000000000000000000000000000000000000000000000000000000000000000000000000000000000000000000000000000000000000000000000000000000000000000000000000000000000000000000
#05314:00140000
#05316:0000000000140000
#05315:13
#0531b:00130000
#05313:0013
#05412:0014001400130000
#0541a:0014001400000000
#05416:14140000
#05418:0000000000000013
#05415:00000013
#0541b:0000000000130000
#03712:1400130000000013
#03716:0000000013001313
#0371b:0000000000130000
#03717:00130000
#0371a:24
#03812:00001300130000000013000000000000
#0381b:0013000000131300
#03815:0000001300000000
#06316:1300001400000014
#06312:0013000013001300
#06317:0013
#0631b:1300130000130000
#06310:41
#07112:240024002400241c
#07113:00000000001a0000
#07115:0016000000000000
#07114:0000001800000000
#0711a:24242424
#0671b:1313000013130000
#06717:0000131300001313
#06712:23140014
#06716:0023
#06819:0013001300130000
#06812:23140014
#06817:00130013
#0681b:1313
#06816:0023
#08416:1300280000140014
#08412:0000142800001300
#0841b:00000013
#0841a:0000001400000000
#08318:13130000
#08315:0013130000000000
#0831b:0000001300001313
#08312:1400001300001313
#08317:000000000000000000000000000000000000000000000000000000000000000000000000000000000000000000000000000000000000000000000000000000000000000000000000000000000000000000000000000000000000000000000000000000000000000000000000000000000000000000000000000000000000000000000000000000000000000000000000000000000000000000000000000000000000000000000000000000000000000000000000000000000000000000000000000000000000000000000000000000000000000000000000000000000000000000000000000000000000000000000000000000000000000000000000000000000000000000000000000000000000000000000000000000000000000000000000000000000000000000000000000000000000000000000000000000000000000000000000000000000000000000000000000000000000000000000000000000000000000000000000000000000000000000000000000000000000000000000000000000000000000000000000000000000000000000000000000000000000000000000000000000000000000000000000000000000000000000000000000000000000000000000000000000000000000000000000000000000000000000000013
#09612:1600000023242526
#09618:26000013001300130000000000002600
#0961b:0023
#09619:00000025
#0961a:0000000000240000
#09615:0023232300000000
#10312:0012000000000000
#10315:0032
#10314:0000003200000000
#10313:00320000
#10116:0012000000000000
#10114:0000000000000012
#1011c:0032
#1011a:0000003200000000
#10118:00320000
#0021c:0000001200000000
#00216:0000000000000012
#0021a:0032000000320000
#0021b:00323200
#00312:0000001200000000
#00316:00000000000000000000000000001232
#00314:0032000000320000
#00313:00323200
#00315:00000032
#0251b:2300130000000013
#02512:1300000000130000
#02517:00131313
#02516:0000000000000014
#02912:1300130000000013
#0291b:1300000000130000
#02916:0000130013001314
#09013:0012
#09015:0000000000120000
#09017:00000012
#00412:00001232000000000000000000000000
#00416:0000003212320000
#00418:0000000000000012
#0811b:0000130000130013
#08116:00130000
#08112:2400001300002626
#08117:0013
#0811a:24
#03412:00140014
#05018:12
#05014:0013000000000000
#05016:0000120000000013
#0501b:00000000000000000013000000001300
#05017:0000001300000000
#05012:0000001300001300
#05019:0013000000000000
#03916:0013000000130000
#03912:0000001300000013
#1021a:0012000000000012
#10214:0032
#10216:0000003200000000
#10218:00320000
#1001c:0000000000000012
#07014:0014001400000000
#07019:00150000
#07016:1414
#07012:00140015
#0701a:24002414
#0085a:0014
#00852:0014
#0175b:1300000063000053
#01752:53
#01756:00530000
#08958:56
#0185b:0053005300000000
#01856:0000006300000000
#01857:23000000230000000023000000000000
#01852:00000000000000000023000000000000
#01056:0000005300000000
#01057:0023000000000000
#01052:00000000000000000023000000000000
#0095b:0000000000000053
#0095a:44
#00957:00530000
#0205b:0000006300000000
#02056:0000006300000000
#05656:00230000
#05652:63
#06056:0000006300000000
#07357:0000002300000053
#07352:3600630000000013
#07358:46
#07457:0000005300000000
#07456:0053000000000000
#0745b:0013000000000000
#07452:0000001300000000
#07552:5353
#0755a:0000000000000044
#0755b:00630000
#07556:0000002300000000
#07557:0023000000230000
#0775b:1300530053000063
#07757:0000002300000000
#07756:0023000000000000
#07752:6300000063000053
#02352:00000063
#0235b:0000000000000053
#02356:6300006300000000
#02257:0000005300000000
#02252:0063006300000000
#0225b:00000000000000000023000000000000
#02256:23000000230000000023000000000000
#0325b:5300430000000063
#03257:0023000000000000
#03252:00330000
#03157:0023000000000000
#0315b:53
#03156:0000000000230000
#03152:0063
#04157:53
#0415b:00530000
#04152:3463
#04156:00630000
#04357:0000005300000000
#0435b:6300000000230000
#04352:0000000000000053
#04256:0000005300000000
#04252:00000000000000000023000000000000
#0425b:0000004300000000
#04757:53
#04752:53000053
#0475b:0000001300000063
#04756:0000001300000000
#08855:0053
#08858:53
#08857:00000000000000000000002300000000
#09256:0054
#09252:00000033
#0925b:00430000
#09352:56
#00056:0000000000000052
#03356:00000000000000000000000000240000
#03352:34
#01152:0000000000000063
#0115b:0000000000000013
#01257:0000006300000000
#01252:0000001300000000
#07252:00000014
#0725a:00000014
#00152:0000002200000000
#00158:0000000000000062
#00556:12
#01457:0000006300000000
#01456:0023000000000000
#0145b:00000000000000000023000000000000
#01352:3400000000000063
#01356:00630000
#01957:5300005300000000
#0195b:0000000000000053
#0215b:63
#02152:0000000053000053
#02157:00630000
#02455:0052
#02459:00000000000000520000000000000000
#03458:00000046
#0355b:0000000000000013
#03556:0000000000000063
#03652:00230000000000000000000000000000
#0365b:0000005300000000
#03657:00000000000000000023000000000000
#03656:0000003300000000
#04456:0023000000000000
#04452:0000005300000000
#04552:0023000000000023
#04557:0023000000000000
#04556:6300002300000000
#0455b:5300000000000023
#04559:00530000
#04554:00000000630000000063000000000000
#04952:00630000
#04956:63
#0495b:0053
#04957:00530000
#0495a:44
#0515b:0000000000000063
#05152:53
#0535a:2400000024000044
#05358:000000000000000000000000000000000000000000000000000000000000000000000000000000000000000000000000000000000000000000000000000000000000000000000000000000000000000000000000000000000000000000000000000000000000000000000000000000000000000000000000005300000000000000000000000000000000000000000000000000000000000000000000000000000000000000000000000000000000000000000000000000000000000000000000000000000000000000000000000000000000000000000000000000000000000000000000000000000000000000000000000000000000000000000000000000000000000000000000000000000000000000000000000000000000000000000000000000000000000000000000000000000000000000000000000000000000000000000000000000000000000000000000000000000000000000000000000000000000000000000000000000000000000000000000000000000000000000000000000000000000000000000000000000000000000000000000000000000000000000000000000000000000000000000000000000000000000000000000000000000000000000000000000000000000000000000000000000000000000000000000000000000000000000000000000000000000000000000000000000000000000000000000000000000000000000000000000000000000000000000000000000000000000000000000000000000000000000000000000000000000000000000000000000000000000000000000000000000000000000000000000000000000000000000000000000000000000000000000000000000000000000000000000000000000000000000000000000000000000000000000000000000000000000000000000000000000000000000000000000000000000000000000000000000000000000000000000000000000000000000000000000000000000000000000000000000000000000000000000000000000000000000000000000000000000000000000000000000000000000000000000000000000000000000000000000000000000000000000000000000000000000000000000000000000000000000000000000000000000000000000000000000000000000000000000000000000000000000000000000000000000000000000000000000000000000000000000000000000000000000000000000000000000000000000000000000000000000000000000000000000000000000000000000000000000000000000000000000000000000000000
#05357:000000000000000000000000000000000000000000000000000000000000000000000000000000000000000000000000000000000000000000000000000000000000000000000000000000000000000000000000000000000000000000000000000000000000000000000000000000000000000000000000640000000000000000000000000000000000000000000000000000000000000000000000000000000000000000000000000000000000000000000000000000000000000000000000000000000000000000000000000000000000000000000000000000000000000000000000000000000000000000000000000000000000000000000000000000000000000000000000000000000000000000000000000000000000000000000000000000000000000000000000000000000000000000000000000000000000000000000000000000000000000000000000000000000000000000000000000000000000000000000000645300000000000000000000000000000000000000000000000000000000000000000000000000000000000000000000000000000000000000000000000000000000000000000000000000000000000000000000000000000000000000000000000000000000000000000000000000000000000000000000000000000000000000000000000000000000000000000000000000000000000000000000000000000000000000000000000000000000000000000000000000000000000000000000000000000000000000000000000000000000000000000000000000000000000000000000000000000000000000000000006300000000000000000000000000000000000000000000000000000000000000000000000000000000000000000000000000000000000000000000000000000000000000000000000000000000000000000000000000000000000000000000000000000000000000000000000000000000000000000000000000000000000000000000000000000000000000000000000000000000000000000000000000000000000000000000000000000000000000000000000000000000000000000000000000000000000000000000000000000000000000000000000000000000000000000000000000000000000000000000000000000000000000000000000000000000000000000000000000000000000000000000000000000000000000000000000000000000000000000000000000000000000000000000000000000000000000000000000000000000000000000000000000000000000000000000000000000000000000000000
#05354:00240000
#05356:0000000000540000
#05355:23
#0535b:00230000
#05353:0023
#05452:0034000000000000
#0545a:0000004400000000
#05257:0023000000000000
#0525b:0000006300000000
#05557:0023
#05556:23440034
#05752:34
#03852:00000000000000000023000000000000
#0385b:0023000000000000
#03855:0000005300000000
#03756:0000000000000053
#0375a:44
#03757:00630000
#05857:0000002300000000
#05952:00002323
#05956:0000006300630063
#0615b:0000005300000000
#06452:53000013
#06457:0000000000230000
#0645b:0063
#06456:0023000000000000
#06352:0023000000003300
#06356:63
#06357:0053
#0635b:0000430000230000
#0655b:00430043
#0665b:00430043
#06959:00450000
#06952:00000035
#07152:000000000000001c
#06752:00340034
#06852:00340034
#0765a:0000004400000000
#07652:0034006400000000
#07656:0024
#07858:22
#0785a:0062006200000000
#0785c:00220000
#07854:0052005200000000
#07856:22
#07852:00220000
#07958:42
#07956:32
#07954:0000003200000000
#0795a:0000004200000000
#08056:00220000000000000000000000000000
#08058:00220000000000000000000000000000
#08052:00320000
#0805c:00420000
#08358:53531600
#08355:0023630000000000
#0835b:0000002300000063
#08352:0000002316000053
#08357:000000000000000000000000000000000000000000000000000000000000000000000000000000000000000000000000000000000000000000000000000000000000000000000000000000000000000000000000000000000000000000000000000000000000000000000000000000000000000000000000000000000000000000000000000000000000000000000000000000000000000000000000000000000000000000000000000000000000000000000000000000000000000000000000000000000000000000000000000000000000000000000000000000000000000000000000000000000000000000000000000000000000000000000000000000000000000000000000000000000000000000000000000000000000000000000000000000000000000000000000000000000000000000000000000000000000000000000000000000000000000000000000000000000000000000000000000000000000000000000000000000000000000000000000000000000000000000000000000000000000000000000000000000000000000000000000000000000000000000000000000000000000000000000000000000000000000000000000000000000000000000000000000000000000000000000000000000000000000000000023
#0855b:13
#08552:13
#08556:0000000000000044
#08758:53
#08755:0053
#08456:23480000
#08452:0000003800000000
#09652:0000000000000036
#09658:0000000000000046
#10352:0052000000000000
#10156:0052000000000000
#10154:0000000000000052
#0025c:0000002200000000
#00256:0000000000000052
#00352:0000002200000000
#00356:0000000000000052
#01652:0013
#0265b:0000006300000000
#02657:00000000000000000023000000000000
#02654:0034000000000000
#02652:0000003400000000
#02656:0000000000000063
#02552:53
#02557:00530000
#0255b:13
#02556:0000000000000034
#02956:0000630000000044
#0295b:63
#03058:0044000000000000
#0305a:0000004400000000
#02757:0000006300000000
#02752:0000000000000053
#02856:0023000000000000
#04052:00340000
#0405a:00440000
#04859:00000000000000520000000000000000
#04855:0052
#00456:0052
#00452:0052000000000000
#0815a:44
#08152:3400002300000000
#08156:00630000
#08157:0053
#0815b:0000000000230063
#08656:00003400000044000023000000000000
#08652:0000006300000000
#04652:0000001300000000
#0465b:0000001300000000
#04654:0053000000000000
#04659:0053000000000000
#05057:0000006300000000
#05052:0000003300000000
#0505b:00000000000000000023000000000000
#08259:0000006300000000
#0825a:0063000000000000
#1025a:0062000000000052
#1005c:0000000000000062
#09152:00000033
#0915b:00430000
#0955b:00000043
#09552:00330000
#07059:00450000
#07052:00000035
#000360:0000000000000012
#001340:0032000000320000
#001330:00323200
#001320:0000003200000000
#001360:0000000000000022
#001381:0000000000000012
#0023a1:0032000000320000
#0023b1:00323200
#0023c1:0000003200000000
#002381:0000000000000022
#002360:0000000000000012
#003340:0032000000320000
#003330:00323200
#003320:0000003200000000
#003350:00000032
#003360:00000000000000000000000000003232
#004320:00003232000000000000000000002200
#004360:0000003232320000
#009370:00130000
#0093b0:0023
#0093b0:0000000000000013
#010370:0033000000000000
#010390:00330000
#0103b0:0000002300000000
#010361:0000001300002300
#010321:00000000000000000053000000000000
#011381:13230000
#0113b1:0033000000000000
#011350:00132300
#011320:0000003300000000
#011320:0000000000000013
#012360:0023000000000000
#012370:0000001300000000
#0123b0:0000000000230000
#013360:00130000
#013320:0023
#013320:0000000000000013
#014360:0033000000000000
#014340:00330000
#014320:0000002300000000
#014371:0000001300002300
#0143b1:00000000000000000053000000000000
#015351:13230000
#015321:0033000000000000
#015380:00132300
#0153b0:0000003300000000
#015351:00001323
#015321:0000000000330000
#016321:13332300
#016351:0033003300000000
#017321:1323
#017361:00330000
#0173b0:0013
#017370:00000023
#0173b0:0000000000000013
#018370:53000000530000000053000000000000
#0183b0:0033003300002300
#018361:0000001300002300
#018321:00000000000000000053000000000000
#019371:13
#0193b1:00230000
#019371:0000001300000000
#0193b1:0000000000230000
#0193b1:0000000000000013
#020371:0023000000000000
#0203b1:0000001300000000
#020371:00000023
#020360:0000001300000000
#020320:00000023
#0213b0:1323
#021370:00330000
#021321:0013
#021361:00000023
#021321:0000000000000013
#022361:53000000530000000053000000000000
#022321:0033003300002300
#022370:0000001300002300
#0223b0:00000000000000000053000000000000
#023360:13
#023320:00230000
#023360:0000001300000000
#023320:0000000000230000
#023320:00000013
#024390:00220000
#0233b1:0000000000000013
#024351:00220000
#024391:00000000000000120000000000000000
#024361:00000022
#024350:0012
#024380:00000022
#025320:1323
#025370:00330000
#0263b0:0000001300002300
#026370:00000000000000000053000000000000
#026360:0000000000000013
#027320:5300002300000000
#027371:0000001300000000
#0273b1:0000000053000023
#027320:0000000000000013
#028360:0053000000000000
#028320:0000002300000000
#028371:0000001300230000
#0293b1:1323
#029361:00330000
#0313b1:13230000
#031371:0053000000000000
#031321:00001323
#031361:0000000000530000
#0323b1:13230000
#032371:0053000000000000
#0323b1:0000000000000013
#033361:00000000000000000000000000540000
#034381:00000026
#035321:1323000000000000
#035361:0000132300000000
#035321:0000000013230000
#035361:0000000000001333
#036321:00530000000000000000000000000000
#036361:0000332300000000
#0363b0:0000001300002300
#036370:00000000000000000053000000000000
#037370:00130000
#0373b0:0023
#037360:0000000000000013
#0383b0:0053000000000000
#038380:0000002300000000
#038351:0000001300000000
#038321:00000000000000000053000000000000
#038361:00000023
#0393b1:1323000000000000
#039371:0000132300000000
#0393b1:0000000013230000
#039371:0000000000001323
#041371:1323
#0413b1:00330000
#041360:00130023
#041320:0033
#042360:0000001300002300
#042320:00000000000000000053000000000000
#0433b0:1300000000330000
#043370:0000333300000023
#043390:00000033
#043321:0000000000000013
#044361:0033000000000000
#044341:00330000
#044321:0000003300000000
#0443b1:00000023
#044370:0000001300002300
#045360:1300005300000000
#045320:0053000000002300
#045340:00000000330000003353000000000000
#0453b1:1300005333002300
#045371:0053000000000000
#045391:00330000
#045321:0000000000000013
#046391:0033000000000000
#046321:0000002300000000
#0453b0:0000000000000013
#046340:0033000000000000
#0463b0:0000002300000000
#047370:13
#0473b0:00230000
#047321:13
#047361:00230000
#047321:00000013
#048361:00220000
#0473b0:0000000000000013
#048380:00220000
#048390:00000000000000120000000000000000
#048350:00000023
#048351:0012
#048381:00000023
#049361:1323
#049321:00330000
#049370:00130023
#0493b0:0033
#050370:0000001300002300
#0503b0:00000000000000000053000000000000
#051320:13
#051370:00220000
#0513b0:0000000000000013
#052370:0033000000000000
#052390:00330000
#0523b0:0000003300000000
#052320:00000023
#052361:0000001300002300
#0533a1:1434
#053371:0054005400000000
#053341:00340000
#053361:0000000000540000
#053321:00000024
#053350:13
#053380:000000000000000000000000000000000000000000000000000000000000000000000000000000000000000000000000000000000000000000000000000000000000000000000000000000000000000000000000000000000000000000000000000000000000000000000000000000000000000000000000005300000000000000000000000000000000000000000000000000000000000000000000000000000000000000000000000000000000000000000000000000000000000000000000000000000000000000000000000000000000000000000000000000000000000000000000000000000000000000000000000000000000000000000000000000000000000000000000000000000000000000000000000000000000000000000000000000000000000000000000000000000000000000000000000000000000000000000000000000000000000000000000000000000000000000000000000000000000000000000000000000000000000000000000000000000000000000000000000000000000000000000000000000000000000000000000000000000000000000000000000000000000000000000000000000000000000000000000000000000000000000000000000000000000000000000000000000000000000000000000000000000000000000000000000000000000000000000000000000000000000000000000000000000000000000000000000000000000000000000000000000000000000000000000000000000000000000000000000000000000000000000000000000000000000000000000000000000000000000000000000000000000000000000000000000000000000000000000000000000000000000000000000000000000000000000000000000000000000000000000000000000000000000000000000000000000000000000000000000000000000000000000000000000000000000000000000000000000000000000000000000000000000000000000000000000000000000000000000000000000000000000000000000000000000000000000000000000000000000000000000000000000000000000000000000000000000000000000000000000000000000000000000000000000000000000000000000000000000000000000000000000000000000000000000000000000000000000000000000000000000000000000000000000000000000000000000000000000000000000000000000000000000000000000000000000000000000000000000000000000000000000000000000000000000000000000000000000000000000000000
#0533b0:00330023
#053370:000000000000000000000000000000000000000000000000000000000000000000000000000000000000000000000000000000000000000000000000000000000000000000000000000000000000000000000000000000000000000000000000000000000000000000000000000000000000000000000000000000000000000000000000000000000000000000000000000000000000000000000000000000000000000000000000000000000000000000000000000000000000000000000000000000000000000000000000000000000000000000000000000000000000000000000000000000000000000000000000000000000000000000000000000000000000000000000000000000000000000000000000000000000000000000000000000000000000000000000000000000000000000000000000000000000000000000000000000000000000000000000000000000000000000000000000000000000000000000000000005300000000000000000000000000000000000000000000000000000000000000000000000000000000000000000000000000000000000000000000000000000000000000000000000000000000000000000000000000000000000000000000000000000000000000000000000000000000000000000000000000000000000000000000000000000000000000000000000000000000000000000000000000000000000000000000000000000000000000000000000000000000000000000000000000000000000000000000000000000000000000000000000000000000000000000000000000000000000000000000005300000000000000000000000000000000000000000000000000000000000000000000000000000000000000000000000000000000000000000000000000000000000000000000000000000000000000000000000000000000000000000000000000000000000000000000000000000000000000000000000000000000000000000000000000000000000000000000000000000000000000000000000000000000000000000000000000000000000000000000000000000000000000000000000000000000000000000000000000000000000000000000000000000000000000000000000000000000000000000000000000000000000000000000000000000000000000000000000000000000000000000000000000000000000000000000000000000000000000000000000000000000000000000000000000000000000000000000000000000000000000000000000000000000000000000000000000000000000000000000
#053330:0033
#055360:13
#055320:00230000
#055370:0013
#0553b0:00000023
#056320:1323
#056360:00530000
#058370:0000001300000000
#0583b0:00000023
#059360:0000001300330033
#059320:00005353
#060320:0023000000000000
#060360:0000001300000000
#060320:00000023
#0613b0:0000001300000000
#061370:0000000000230000
#063360:13230000
#063320:0053000000000000
#063370:00001323
#0633b0:0000000000530000
#064320:13230000
#064360:0053000000000000
#0643b0:00001323
#064370:0000000000530000
#073320:00132300
#073370:0000005300000000
#073370:0000000000000013
#0743b0:0023000000000000
#074361:0013000000000000
#074321:0000002300000000
#074370:0000001300000000
#0743b0:0000000000230000
#075320:13230000
#075370:0053000000000000
#0753b1:00132300
#075361:0000005300000000
#075320:00001323
#075370:0000000000530000
#076320:0000001400240000
#076360:0054
#077320:13333300
#077360:0053000000000000
#0773b0:0000000000332300
#0773b1:00133300
#077371:0000005300000000
#077321:0000000000332300
#0773b1:0000000000000013
#078381:5200000052220000
#0783a1:0032003200000000
#0783c1:00520000
#077320:0000000000000013
#078360:5200000052220000
#078340:0032003200000000
#078320:00520000
#079360:0000000000000012
#080360:00520000000000000000000000000000
#080320:00220000
#079381:0000000000000012
#080381:00520000000000000000000000000000
#0803c1:00220000
#081361:00130000
#081321:0000005300000000
#081341:0023
#081370:0013
#0813b0:0000000000530000
#081380:00000023
#081320:0000000000000016
#082320:000000000000000000000000000000000000000000000000000000000000000000000000000000000000000000000000000000000000000000000000000000000000000000000000000000000000000000000000000000000000000000000000000000000000000000000000000000000000000000000000000000000000000000000000000000000000000000000000000000000000000000000000000000000000000000000000000000000000000000000000000000000000000000000000000000000000000000000000000000000000000000000000000000000000000000000000000000000000000000000000000000000000000000000000000000000000000000000000000000000000000000000000000000000000000000000000000000000000000000000056230000000000000000000000000000000000000000000000000000000000000000000000000000000000000000000000000000000000000000000000000000000000000000000000000000000000000000000000000000000000000000000000000000000000000000000000000000000000000000000000000000000000000000000000000000000000000000000000000000000000000000000000000000000000000000000000000000000000000000000000
#0813b1:0000000000000013
#082371:23
#0823a1:0013000000000000
#082361:00230000
#082391:0000001300000000
#082351:0000000000230000
#083381:13332600
#083351:0053000000000000
#0833b1:0000005300000000
#083350:00130000
#083320:0000005326000000
#0833b0:0000000000000013
#083370:000000000000000000000000000000000000000000000000000000000000000000000000000000000000000000000000000000000000000000000000000000000000000000000000000000000000000000000000000000000000000000000000000000000000000000000000000000000000000000000000000000000000000000000000000000000000000000000000000000000000000000000000000000000000000000000000000000000000000000000000000000000000000000000000000000000000000000000000000000000000000000000000000000000000000000000000000000000000000000000000000000000000000000000000000000000000000000000000000000000000000000000000000000000000000000000000000000000000000000000000000000000000000000000000000000000000000000000000000000000000000000000000000000000000000000000000000000000000000000000000000000000000000000000000000000000000000000000000000000000000000000000000000000000000000000000000000000000000000000000000000000000000000000000000000000000000000000000000000000000000000000000000000000000000000000000000000000000000000000000053
#0843b0:0023000000000000
#083321:0000000000000013
#084361:53
#084321:0023000000000000
#086321:0000001300002300
#086361:00000000000000000053000000000000
#087321:13230000
#087380:13
#087350:00230000
#0873b0:00001323
#087351:0013
#087381:00000023
#088321:13230000
#088380:13
#088350:00230000
#088350:0013
#088370:00000000000000000000005300000000
#088320:0000000000000023
#089380:16
#0913c0:0022000000000000
#089321:12
#089341:0032000000000000
#089361:00220000
#089371:0000001200000000
#089351:0032
#089331:0000000000220000
#089341:00000012
#089361:0000000000000032
#090381:22
#090391:0012000000000000
#090371:00320000
#090351:0000002200000000
#090371:0000000000000012
#091321:0022000000000000
#091321:00132300
#091351:0000003300000000
#0913b0:00001323
#091380:0000000000330000
#092320:13230000
#092350:0033000000000000
#092360:0014
#0923a0:00000024
#093320:16
#095320:22
#0933c1:12
#093381:00220000
#0933b1:0000001200000000
#093371:0000000000220000
#093361:0000000000000012
#0943a1:0022000000000000
#0943a1:0000001200000000
#094361:0000000000220000
#1003c0:0000000000000012
#101340:0000000000000032
#1023a0:0000000000000032
#103340:0000000000003232
#103330:0000000000000000000000000000000000000000000000000000000000320000
#103320:00000000000000000000000000000032
#107370:0000000000000021
#101361:0012000000000000
#101381:00320000
#1013a1:0000003200000000
#1013c1:0000000032320022
#1023a1:0012000000000000
#102381:00320000
#102361:0000003200000000
#102341:0000000032320022
#103321:0012000000000000
#103331:00320000
#103341:0000003200000000
#103351:0032
#1033a1:0000000000320032
#1033b1:0000000000000000000000000000000000000000000000000000000000320000
#1033c1:00000000000000000000000000000032
#107381:0000000000000021
