This file was generated by Ched 2.7.0.0.
#TITLE ""
#ARTIST ""
#DESIGNER ""
#DIFFICULTY 0
#PLAYLEVEL
#SONGID ""
#WAVE ""
#WAVEOFFSET 0
#JACKET ""
#REQUEST "ticks_per_beat 480"
#00002: 4
#BPM01: 178
#00008: 01
#TIL00: ""
#VOLUME: ""
#HISPEED 00
#MEASUREHS 00
#0051a:1414
#00514:00140000
#00612:1414
#00618:00140000
#0071a:1414
#00714:00140000
#00812:1414
#00818:00140000
#00918:14
#00914:0014
#0101a:1414
#01114:14
#01118:0014
#01212:1414
#0131a:14
#01312:0014
#01310:41
#01418:1414
#01512:14
#0151a:0014
#01614:1414
#0651a:14
#06514:00140000
#06518:0014
#06512:00000014
#06918:14
#07014:14
#0711a:14
#07112:00140000
#07118:00001414
#07114:0000000000140000
#08818:0014
#08912:14
#08914:00000014
#08910:41
#09218:14
#09212:0024
#0921a:0024
#09114:00140014
#09118:1414
#06618:14
#06614:00140000
#0661a:0014
#06712:14
#06718:00140000
#06714:0014
#0671a:00000014
#06814:14
#06818:00140000
#06812:0014
#07914:14
#07918:0014
#08014:14
#0811a:14
#08116:00140000
#08112:0014
#07512:14
#0751a:00140000
#07516:0014
#0771a:14
#07712:00140000
#07716:0014
#07312:00140000
#07316:0014
#0731a:24
#0731f:21
#07310:0041
#08312:14
#08316:00140000
#0831a:0014
#0851a:14
#08516:00140000
#08512:0014
#03512:14
#03518:0014
#03714:14
#0371a:0014
#03318:0014
#03310:41
#03414:14
#0341a:0014
#03614:14
#0361a:0014
#03812:14
#03818:0014
#03914:14
#0391a:0014
#04012:14
#04018:0014
#0951a:1414
#09512:00140014
#0961a:14
#09612:00140000
#09618:00001414
#09614:0000000000140000
#0171a:0014
#01712:00140000
#01714:00000014
#01718:24
#01818:14
#0181a:0014
#01812:00140000
#02112:0014
#0211a:00140000
#02118:00000014
#02114:14
#02214:14
#02212:0014
#0221a:00140000
#02518:0014
#02512:00140000
#02514:00000014
#0251a:24
#0261a:14
#02618:0014
#02612:00140000
#02914:0014
#0291a:00140000
#02918:00000014
#02912:14
#03012:14
#0301a:00140000
#03014:0014
#04913:0014
#04918:00140000
#04919:00000014
#04912:24
#04910:41
#05014:14
#05019:00140000
#05013:0014
#05018:00000014
#0531a:14
#05319:0014
#05314:00140000
#05313:00000014
#04114:2414
#0411a:00140014
#04212:1414
#04218:00140014
#04518:1414
#04512:00140014
#0461a:1414
#04614:00140014
#05418:14
#05413:00140000
#05419:0014
#05414:00000014
#0641f:00000011
#0931a:24
#09312:24
#05812:34
#05712:0034
#0601a:34
#0591a:0034
#06112:0034
#06212:34
#06310:41
#00958:14
#06958:54
#07054:54
#08952:54
#08954:00000024
#08054:54
#07254:0014
#08852:14
#07458:0000001400000000
#07654:0000001400000000
#07858:0000001400000000
#0825a:0000001400000000
#08452:0000001400000000
#0865a:0000001400000000
#03352:14
#0003a0:0000000000000014
#0013a0:0000000000000024
#002320:0000000000000014
#003320:0000000000000024
#019340:14
#019320:0024
#0203a0:14
#020380:0024
#023380:14
#0233a0:0024
#024320:14
#024340:0024
#027320:14
#027340:0024
#028380:14
#0283a0:0024
#0313a0:14
#031380:0024
#032340:14
#032320:0034
#033320:24
#043340:14
#043320:0034
#044320:34
#044340:0024
#047380:14
#0473a0:0034
#0483a0:34
#048380:0024
#051320:14
#051340:0034
#052340:34
#052320:0024
#0553a0:14
#055380:0034
#056380:34
#0563a0:0024
#057320:1434
#058320:34
#058340:0024
#0593a0:1434
#0603a0:34
#060380:0024
#061320:1434
#062320:34
#062340:0024
#063380:1424
#064340:1424
#069380:14
#0693a0:0024
#070340:14
#070320:0024
#071340:0000000000000014
#072340:0024
#0733a0:0000000000001434
#074380:0034002400000000
#075320:0000000000001434
#076340:0034002400000000
#0773a0:0000000000001434
#078380:0034002400000000
#080340:14
#080320:0024
#081380:0000000000001434
#0823a0:0034002400000000
#083340:0000000000001434
#084320:0034002400000000
#085380:0000000000001434
#0863a0:0034002400000000
#087320:1400000000000034
#087340:0034
#088320:24
#089320:14
#089340:00000054
#090320:0024
#0933a0:14
#094380:0024
#093321:14
#094341:0024
#096341:0000000000000014
#097341:0000000000000024
#098381:0000000000000014
#099381:0000000000000024
#100321:0000000000000014
#101321:0000000000000024
#1023a1:0000000000000014
#1033a1:0000340034003434
#107381:0000000000000023
